(Death/Symphonic/Operatic) Therion - Дискография - 1991 - 2009, FLAC (image+.cue), lossless

Ответить на тему
Статистика раздачи
Размер:  9,89 GB   |    Зарегистрирован:  8 дней   |    Скачан:  0 раз
Сидов:  1  [  0 KB/s  ]   Личеров:  30  [  0 KB/s  ]   Подробная статистика пиров
 
     
 
 
 
Автор Сообщение

erzsebet ®

Стаж: 1 год 7 месяцев

Сообщений: 21185

Откуда: с небес

Создавать темы 08-Ноя-2018 11:54  |  Сменить автора

[Цитировать] 

Therion - Дискография-Жанр: Death/Symphonic/Operatic | Года выпуска: 1991-2009 | Страна: Sweden (Stockholm)| Аудио кодек: FLAC | Тип рипа: image+.cue | Битрейт аудио: lossless | Продолжительность: 24:33:47- -

Состав группы.

Christofer Johnsson - Guitars, Keyboards (Vocals until 2006) (Carbonized (Swe), Messiah (Che), Procreation (Swe), Demonoid, Liers in Wait, Crematory (Swe))Session/Touring Vocalists:Thomas Vikstrцm (Candlemass, 7days, Dark Illusion, Stormwind (Swe), Mehida)
Snowy Shaw (Notre Dame, King Diamond, Illwill, Mercyful Fate, Memento Mori, Cans, Dream Evil, XXX)
Katarina Lilja (Sobre Nocturne)
Hannah Holgersson (studio only)
Lori Lewis (touring only) (Aesma Daeva)Former/past member(s):Guitars & keyboards:Jonas Mellberg (Unanimated)
Peter HanssonGuitars:Magnus Barthelson (Feeble Lies)
Tommy Eriksson (also live drums) (Ligament, Shadowseeds, Count Raven, Nocturnal Rites)
Kristian Niemann (Demonoid)Bass:Erik Gustafsson (Dismember)
Jan Kazda
Fredrik Isaksson (Grave, Excruciate (Swe))
Lars Rosenberg (Entombed, ex-Monastery (Hol), Serpent, Mental Distortion, Furcas, Roachpowder, Carbonized (Swe))
Andreas Wallan Wahl (Serpent)
Johan Niemann (Afterglow (Swe)/Mind's Eye (Swe), Demonoid, Hubi Meisel, Tears of Anger)Drums:Piotr Wawrzeniuk (also vocals) (Monev, Carbonized (Swe), Serpent)
Oskar Forss
Wolf Simon
Sami Karppinen (Ruoska)
Richard Evensand (Chimaira, Demonoid, Dog Faced Gods, Ebony Tears, Lion's Share, Soilwork (Tour), Sorcerer (Swe), Southpaw)
Petter Karlsson (Argento (Swe), Kajarr, Conspiracy)Vocals:Matti KпїЅrki (Carnage (Swe), Carbonized (Swe), Dismember, Murder Squad, General Surgery)
Sarah Jezebel Deva (Sarah Jane Ferridge) (Angtoria, Cradle of Filth, Covenant (Nor), Mortiis, Tulus, The Gathering)
Martina Astner (Hornbacher) (Dreams of Sanity, Alas, Korovakill/Korova)
Karin Fjellander
Mats Levin (Abstrakt Algebra, Southpaw, Krux, Yngwie J. Malmsteen, At Vance, Fatal Force, Audiovision, Sabbtail, Treat, Jupiter Society)Keyboards:Kimberly Goss (Ancient (Nor), Dimmu Borgir, Sinergy, Avernus, Warmen)
Альбомы:

1991 - Of Darkness

Список песен:01. (5:14) The Return
02. (4:00) Asphixiate with Fear
03. (6:05) Morbid Reality
04. (4:11) Megalomania
05. (4:48) A Suburb to Hell
06. (5:15) Genocidal Raids
07. (5:08) Time Shall Tell
08. (4:50) Dark Eternity
09. (5:19) A Suburb to Hell (Demo version)
10. (4:41) Asphixiate with Fear (Demo version)
11. (4:07) Time Shall Tell (Unreleased version)
12. (4:20) Dark Eternity (Unreleased version)

Лог EAC

Exact Audio Copy V0.99 prebeta 1 from 25. May 2007EAC extraction logfile from 9. July 2007, 11:33Therion / Of Darkness...Used drive : PIONEER DVD-RW DVR-111L Adapter: 1 ID: 1Read mode : Secure
Utilize accurate stream : Yes
Defeat audio cache : Yes
Make use of C2 pointers : NoRead offset correction : 48
Overread into Lead-In and Lead-Out : No
Fill up missing offset samples with silence : Yes
Delete leading and trailing silent blocks : No
Used interface : Installed external ASPI interfaceUsed output format : User Defined Encoder
Selected bitrate : 320 kBit/s
Quality : High
Add ID3 tag : Yes
Command line compressor : C:\Program Files\Exact Audio Copy\Flac\flac.exe
Additional command line options : -6 -V -T "artist=%a" -T "title=%t" -T "album=%g" -T "date=%y" -T "tracknumber=%n" -T "genre=%m" -T "comment=EAC 0.95prebeta5 / FLAC 1.1.0 q6" %sTOC of the extracted CD Track | Start | Length | Start sector | End sector
---------------------------------------------------------
1 | 0:00.00 | 5:13.62 | 0 | 23536
2 | 5:13.62 | 4:00.33 | 23537 | 41569
3 | 9:14.20 | 6:04.72 | 41570 | 68941
4 | 15:19.17 | 4:10.63 | 68942 | 87754
5 | 19:30.05 | 4:47.47 | 87755 | 109326
6 | 24:17.52 | 5:15.10 | 109327 | 132961
7 | 29:32.62 | 5:07.55 | 132962 | 156041
8 | 34:40.42 | 4:49.40 | 156042 | 177756
9 | 39:30.07 | 5:19.20 | 177757 | 201701
10 | 44:49.27 | 4:41.33 | 201702 | 222809
11 | 49:30.60 | 4:06.65 | 222810 | 241324
12 | 53:37.50 | 4:19.72 | 241325 | 260821Range status and errorsSelected range Filename H:\Therion - Of Darkness\Therion - Of Darkness....wav Peak level 97.9 %
Range quality 100.0 %
Test CRC B4587D56
Copy CRC B4587D56
Copy OKNo errors occurredEnd of status report

Лог AccurateRip

E:\Музыка\Therion\-Правильные>arcue.exe Therion - Of Darkness....cue
1.cue:Checking AccurateRip databaseTrack Ripping Status [Disc ID: 001a5087-a70d950c] 1 Accurately Ripped (confidence 3) [63d79224]
2 Accurately Ripped (confidence 3) [1fdf84bb]
3 Accurately Ripped (confidence 3) [aef7795f]
4 Accurately Ripped (confidence 3) [a13ca4f6]
5 Accurately Ripped (confidence 3) [17b1d600]
6 Accurately Ripped (confidence 3) [2e69d3a5]
7 Accurately Ripped (confidence 3) [4d8ab27a]
8 Accurately Ripped (confidence 3) [6e75ae3c]
9 Accurately Ripped (confidence 3) [4dd6308f]
10 Accurately Ripped (confidence 2) [efaf25c9]
11 Accurately Ripped (confidence 3) [58a01d5d]
12 Accurately Ripped (confidence 3) [2f165b4d]_______________________All Tracks Accurately Ripped.
-Цитата:Шведская формация Therion, безусловно, известна многим металлистам, а для поклонников симфонического металла является просто-таки культовой. Меж тем далеко не все знакомы с творчеством Therion во всей его полноте, музыкальные издания в основном предпочитают рассматривать его лишь в контексте симфо-металла и не проливают свет на ее андерграундное дэтовое прошлое, а подчас классифицируют ее работы как готик-металл, что в корне неверно. И лишь достаточно упертые фанаты осведомлены об истинном положении вещей. Эти обстоятельства удручают, ибо, на мой взгляд, Therion – это искреннее, идущее от сердца, подлинное искусство, это веха в истории музыки в целом и в истории металла в частности. Все альбомы этой банды по-своему очаровательны, и ни один из них нельзя назвать проходным.Итак, группа ступила на свой путь, не предполагая, куда он приведет ее в дальнейшем. "Of Darkness..." – очень достойное начало, этот альбом должен быть в коллекции каждого уважающего себя поклонника Therion. Слушайте его время от времени, сдувайте с него пыль и не предавайте его забвению...(c) metallibrary

1992 - Beyond Sanctorum

Список песен:01. (05:00) Future Consciousness
02. (04:22) Pandemonic Outbreak
03. (06:12) Cthulhu
04. (06:49) Symphony of the Dead
05. (02:36) Beyond Sanctorum
06. (04:46) Enter The Depths of Eternal Darkness
07. (03:20) Illusions of Life
08. (11:06) The Way
09. (02:03) Paths
10. (03:44) Tyrants of the Damned

Лог EAC

EAC extraction logfile from 26. May 2008, 19:25 for CD
Therion / Beyond SanctorumUsed drive : DVDRW IDE 16X Adapter: 1 ID: 0
Read mode : Secure with NO C2, accurate stream, disable cache
Read offset correction : 12
Overread into Lead-In and Lead-Out : NoUsed output format : E:\Program Files\EAC\Encoders\wavpack.exe (User Defined Encoder)
128 kBit/s
Additional command line options : -m -w "Cuesheet=@*.cue" %s %dOther options :
Fill up missing offset samples with silence : Yes
Delete leading and trailing silent blocks : No
Installed external ASPI interfaceRange status and errors
Selected range
Filename I:\Therion - Beyond Sanctorum.wav.wav.wav Peak level 100.0 %
Range quality 99.9 %
CRC 6DE8F14F
Copy OKNo errors occuredEnd of status report

Лог AccurateRip

c:\>arcue.exe 1.cue
1.cue:Checking AccurateRip databaseTrack Ripping Status [Disc ID: 001345a7-960bb70a] 1 Accurately Ripped (confidence 2) [11463e0b]
2 Accurately Ripped (confidence 2) [e63a0728]
3 Accurately Ripped (confidence 2) [c9d4bc70]
4 Accurately Ripped (confidence 2) [fb3d84a5]
5 Accurately Ripped (confidence 2) [121292c2]
6 Accurately Ripped (confidence 2) [aae357c4]
7 Accurately Ripped (confidence 2) [13db869f]
8 Accurately Ripped (confidence 2) [cca7489d]
9 Accurately Ripped (confidence 2) [0ac4deab]
10 Accurately Ripped (confidence 2) [c1167530]_______________________All Tracks Accurately Ripped.

-
Цитата:Это второй альбом Кристофера Йонссона & Co, выпущенный менее чем через год после первого. К моменту его выхода поимели место некие кадровые пертурбации: группу покинул басист Эрик Густафсон, в связи с чем партии бас-гитары исполнили сам Кристофер вместе со вторым гитаристом Питером Ханссоном. Последний также изрядно попотел над синтезатором, поэтому с соло-гитарой ему помог "гостевой" музыкант Магнус Эклов. Как и в случае с предыдущим диском, звукозаписывающая фирма предоставила предельно сжатые сроки (10 дней) для его записи. Но эти обстоятельства никоим образом не повлияли на качество музыки, совсем наоборот! Налицо, во-первых, прогресс во владении инструментами и, что гораздо важнее, незаурядность группы, проявляющаяся в авангардных для дэта музыкальных ходах. Вместе с тем, музыка не утратила монументальной жесткости и тяжести. По сравнению с первым альбомом, значительно более важное место занимают уже упомянутые клавиши, которые порой выдают фрагменты на манер арабско-персидской музыки, придающей ей особый шарм (хотя слова "шарм" и "дэт" вместе смотрятся слегка нелепо). Другая потрясающая изюминка – женский вокал в исполнении Анны Грэнкуист, а также чистый мужской, принадлежащий Фредрику Люндбергу, в композициях "Symphony Of The Dead" и "Paths" (явственно ощущается то направление, в котором Йонссон будет работать в будущем). Вообще, "Symphony Of The Dead" – одна из лучших дэтовых композиций группы, убивает наповал и отправляет слушателя к облакам! Помимо них, стоит, пожалуй, выделить трек "The Way", а также... А хотя что я тут пытаюсь подобрать слова и описать альбом банальными фразами, это же все равно бесполезно! Все песни рулят, все они по-своему уникальны! Классное, монументальное произведение экстремального искусства! Шедевр в черной оправе!(c) metallibrary

1992 - Beyond Sanctorum (Re-release 2000)

Список песен:01. (04:58) Future Consciousness
02. (04:21) Pandemonic Outbreak
03. (06:09) Cthulhu
04. (06:48) Symphony Of The Dead
05. (02:35) Beyond Sanctorum
06. (04:45) Enter The Depths Of Eternal Darkness
07. (03:20) Illusions Of Life
08. (11:06) The Way
09. (02:01) Paths
10. (03:47) Tyrants Of The Damned11. (06:11) Cthulhu (Demo)
12. (05:07) Future Consciousness (Demo)
13. (06:13) Symphony Of The Dead (Demo)
14. (02:30) Beyond Sanctorum (Demo)

Лог EAC

EAC extraction logfile from 26. May 2008, 19:25 for CD
Therion / Beyond SanctorumUsed drive : DVDRW IDE 16X Adapter: 1 ID: 0
Read mode : Secure with NO C2, accurate stream, disable cache
Read offset correction : 12
Overread into Lead-In and Lead-Out : NoUsed output format : E:\Program Files\EAC\Encoders\wavpack.exe (User Defined Encoder)
128 kBit/s
Additional command line options : -m -w "Cuesheet=@*.cue" %s %dOther options :
Fill up missing offset samples with silence : Yes
Delete leading and trailing silent blocks : No
Installed external ASPI interfaceRange status and errors
Selected range
Filename I:\Therion - Beyond Sanctorum.wav.wav.wav Peak level 100.0 %
Range quality 99.9 %
CRC 6DE8F14F
Copy OKNo errors occuredEnd of status report

Лог AccurateRip

c:\ГО-FLAC>arcue.exe 1.cue
1.cue:Checking AccurateRip databaseTrack Ripping Status [Disc ID: 001345a7-960bb70a] 1 Accurately Ripped (confidence 2) [11463e0b]
2 Accurately Ripped (confidence 2) [e63a0728]
3 Accurately Ripped (confidence 2) [c9d4bc70]
4 Accurately Ripped (confidence 2) [fb3d84a5]
5 Accurately Ripped (confidence 2) [121292c2]
6 Accurately Ripped (confidence 2) [aae357c4]
7 Accurately Ripped (confidence 2) [13db869f]
8 Accurately Ripped (confidence 2) [cca7489d]
9 Accurately Ripped (confidence 2) [0ac4deab]
10 Accurately Ripped (confidence 2) [c1167530]_______________________All Tracks Accurately Ripped.

1993 - Symphony Masses - Ho Drakon Ho Megas

01. (2:12) Baal Reginon
02. (4:19) Dark Princess Naamah
03. (4:02) A Black Rose
04. (2:34) Symphoni Draconis Inferni
05. (5:53) Dawn Of Perishness
06. (5:02) The Eye Of Eclipse
07. (2:09) The Ritualdance Of The Yezidis
08. (3:07) Powerdance
09. (4:07) Procreation Of Eternity
10. (4:21) Ho Drakon Ho Megas

Лог EAC

EAC extraction logfile from 5. January 2004, 23:36 for CD
Therion / Symphony Masses - Ho Drakon Ho MegasUsed drive : HL-DT-STCD-RW GCE-8480B Adapter: 1 ID: 0
Read mode : Secure with C2, accurate stream, NO disable cache
Read offset correction : 0
Overread into Lead-In and Lead-Out : NoUsed output format : E:\Archivos de programa\Exact Audio Copy\codecs\MAC.exe (Monkey's Audio Lossless Encoder)
Extra High Lossless CompressionOther options :
Fill up missing offset samples with silence : Yes
Delete leading and trailing silent blocks : No
Native Win32 interface for Win NT & 2000Range status and errors
Selected range
Filename E:\eac extracts\Therion - Symphony Masses - Ho Drakon Ho Megas.wav Peak level 97.9 %
Range quality 100.0 %
CRC 8942B1E0
Copy OKNo errors occuredEnd of status report_______________________Оффсет откорректирован с помощью offix32 на +6, с совпадением по базе AccurateRip - confidence 6.

Лог AccurateRip

E:\Музыка\Therion>Therion - Symphony Masses - Ho Drakon Ho Megas.cue
Therion - Symphony Masses - Ho Drakon Ho Megas.cue:Checking AccurateRip databaseTrack Ripping Status [Disc ID: 000de2df-7f08da0a] 1 Accurately Ripped (confidence 6) [70c3f1f6]
2 Accurately Ripped (confidence 6) [18301f6e]
3 Accurately Ripped (confidence 6) [1c2fe37f]
4 Accurately Ripped (confidence 6) [7733093e]
5 Accurately Ripped (confidence 6) [1b169bf6]
6 Accurately Ripped (confidence 6) [a89da177]
7 Accurately Ripped (confidence 6) [d49e2c69]
8 Accurately Ripped (confidence 6) [3075c079]
9 Accurately Ripped (confidence 6) [62950ab1]
10 Accurately Ripped (confidence 6) [3050751f]_______________________All Tracks Accurately Ripped.

-
Цитата:Третий полноформатник Therion. Из первоначального состава группы остался лишь один Йонссон. На место второго терзателя шести струн был приглашен Магнус Бартельсон, бас-гитаристом стал Андреас Валь, за ударную установку засел Петр Ваврженюк (впрочем, из новых участников до записи следующего диска останется лишь Ваврженюк). Музыкально "Symphony Masses..." является логическим продолжением предыдущего "Beyond Sanctorum". Сам Кристофер характеризует его как наиболее экспериментальный альбом за всю историю банды. Что ж, если говорить о дэтовых творениях Therion'а, то, пожалуй, так оно и есть. Здесь потрясающе органично смешаны различные, на первый взгляд, совершенно несовместные ингредиенты – и гитарные запилы, присущие хэви-металлу, и арабско-персидские мотивы ("Symphony Drakonis Inferni", "Dark Princess Naamah"), ощущается влияние классической музыки ("The Eye Of Eclipse"); присутствуют – не особо заметные на первый взгляд – индустриальные фишечки ("Dawn Of Perishness"); насквозь прошибает блэк/дэтовая "A Black Rose" (при записи явно был использован испорченный микрофон). Впрочем, пытаться разбирать сей альбом по косточкам есть занятие нудное и бесполезное, именно этот шедевр окончательно выделил Therion из толпы заурядных дэтстеров и вознес группу на недосягаемую высоту.И еще один момент, на который стоит обратить внимание – это лирика. Именно на этом альбоме она приобретает тот неповторимый Therion'овский оттенок, именно здесь впервые затрагиваются оккультно-мифологические темы и эзотерические картины видения мира, а в списках благодарностей упоминается Dragon Rouge – эзотерическая организация, в которой лидер банды Кристофер Йонссон состоит и поныне.Что еще добавить? Правильно, то что всегда говорят в подобных случаях: бегом в магазины!(c) metallibrary

1995 - Lepaca Kliffoth

Список песен:01. (3:33) The Wings Of The Hydra
02. (4:08) Melez
03. (0:54) Arrival Of The Darkest Queen
04. (3:13) The Beauty In Black
05. (2:52) Riders Of Theli
06. (5:03) Black
07. (5:19) Darkness Eve
08. (3:26) Sorrows Of The Moon
09. (3:35) Let The New Day Begin
10. (4:27) Lepaca Kliffoth
11. (4:54) Evocation Of Vovin
12. (4:11) Enter the Voids (bonus)
13. (3:00) The Veil of Golden Spheres (bonus)

Лог EAC

EAC extraction logfile from 30. April 2005, 13:46 for CD
Therion / Lepaca KliffothUsed drive : LG DVD-ROM DRD8160B Adapter: 1 ID: 1
Read mode : Secure with NO C2, accurate stream, disable cache
Combined read/write offset correction : 0
Overread into Lead-In and Lead-Out : NoUsed output format : Internal WAV Routines
44.100 Hz; 16 Bit; StereoOther options :
Fill up missing offset samples with silence : Yes
Delete leading and trailing silent blocks : No
Installed external ASPI interfaceRange status and errors
Selected range
Filename C:\Archivos de programa\mp3&videos\therion\Therion-Lepaca Kliffoth\CDImage.wav Peak level 98.0 %
Range quality 100.0 %
CRC 0E89325D
Copy OKNo errors occuredEnd of status report_______________________Оффсет откорректирован с помощью offix32 на +594, с совпадением по базе AccurateRip - confidence 3.

Лог AccurateRip

E:\Музыка\Therion\-Правильные>arcue.exe CDImage.cue
CDImage.cue:Checking AccurateRip databaseTrack Ripping Status [Disc ID: 00163a04-a40b640d] 1 Accurately Ripped (confidence 3) [e71e1b2e]
2 Accurately Ripped (confidence 3) [c2488184]
3 Accurately Ripped (confidence 3) [f06df7d1]
4 Accurately Ripped (confidence 3) [01b3cb10]
5 Accurately Ripped (confidence 3) [289c1e30]
6 Accurately Ripped (confidence 3) [53bd51fb]
7 Accurately Ripped (confidence 3) [73dacd00]
8 Accurately Ripped (confidence 3) [6e348c8d]
9 Accurately Ripped (confidence 3) [0ce92366]
10 Accurately Ripped (confidence 3) [03463a41]
11 Accurately Ripped (confidence 3) [138de50c]
12 Accurately Ripped (confidence 3) [95f5194f]
13 Accurately Ripped (confidence 3) [ac1e27a6]_______________________All Tracks Accurately Ripped.

-
Цитата:Квинтэссенция дэтового творчества Therion, и – одновременно – новый виток в их музыке. Симфонический дэт-металл во всей его красе. Роль клавиш велика, как никогда, ударные звучат мощно и сочно, гитары и бас тоже великолепны. Группа созрела до исполнения кавер-версий: песня "Sorrows Of The Moon", принадлежащая перу кумиров Кристофера Йоннсона группе Celtic Frost, слушается очень интересно. Собственно, как признается Йонссон, сам альбом "Lepaca Kliffoth" был создан под впечатлением Celtic Frost-овского "Into The Pandemonium", и вот наконец-то музыканты смогли, так сказать, отдать должное любимой группе.Кажется, я начинаю повторяться: что ни альбом Therion, то шедевр... Объективно ли мое мнение? А черт его знает, в конечном итоге, но... но повторю еще раз это слово. Шедевр, и точка!(c) metallibrary

1996 - Theli

Список песен:01. (1:44) Preludium
02. (6:35) To Mega Therion
03. (5:15) Cults Of The Shadows
04. (5:29) In The Desert Of Set
05. (1:47) Interludium
06. (7:32) Nightside Of Eden
07. (3:41) Opus Eclipse
08. (5:32) Invocation Of Naamah
09. (9:56) The Siren Of The Woods
10. (4:04) Grand Finale / Postludium

Лог EAC

EAC extraction logfile from 13. December 2004, 17:08 for CD
Therion / TheliUsed drive : PIONEER DVD-RW DVR-107D Adapter: 1 ID: 0
Read mode : Secure with NO C2, accurate stream, disable cache
Read offset correction : 48
Overread into Lead-In and Lead-Out : NoUsed output format : H:\Archivos de programa\Exact Audio Copy\FLAC.exe (User Defined Encoder)
32 kBit/s
Additional command line options : -6 -V -T "artist=%a" -T "title=%t" -T "album=%g" -T "date=%y" -T "tracknumber=%n" -T "genre=%m" -T "comment=EAC 0.9beta4 / FLAC 1.1.0 q6" %sOther options :
Fill up missing offset samples with silence : Yes
Delete leading and trailing silent blocks : No
Native Win32 interface for Win NT & 2000Range status and errors
Selected range
Filename H:\Metal\Therion.[1996].[CD].Theli.[EAC-FLAC].By.The.Evangelist.[MeTaLMaDNeSS.TeaM]\CDImage.flac.wav Peak level 99.0 %
Range quality 100.0 %
CRC 6F4670A2
Copy OKNo errors occuredEnd of status report

Лог AccurateRip

E:\Музыка\Therion\>arcue Therion- Theli.cue
1.cue:Checking AccurateRip databaseTrack Ripping Status [Disc ID: 0011e24c-660c160a] 1 Accurately Ripped (confidence 27) [8ad01a97]
2 Accurately Ripped (confidence 26) [98fb2660]
3 Accurately Ripped (confidence 26) [a645fb46]
4 Accurately Ripped (confidence 26) [3d251a74]
5 Accurately Ripped (confidence 26) [56338e45]
6 Accurately Ripped (confidence 26) [0e663a06]
7 Accurately Ripped (confidence 26) [7d271b65]
8 Accurately Ripped (confidence 26) [8b0ab7d9]
9 Accurately Ripped (confidence 24) [0f89f968]
10 Accurately Ripped (confidence 23) [a071faf4]_______________________All Tracks Accurately Ripped.

-
Цитата:Кто бы только знал, как мне дорог этот альбом! Я не имею права назвать его самым лучшим приобретением в моей коллекции, но лишь по одной простой причине, которая формирует моё жизненное кредо – не приемлю абсолютных дефиниций, в каком бы то ни было случае. То, что значение "Theli" в моей жизни грандиозно, совершенная и неоспоримая истина – он окончательно убедил меня в том, что металл – это искусство, он заставил душу радоваться неведомым доселе событиям и воспринимать мир в несколько ином свете, в общем и целом, если говорить на чистоту, изменил моё мироощущение, не сильно, лишь слегка подтолкнув меня в нужном направлении, смахнув пелену с моих глаз и раскрепостив разум в музыкальных поисках.Этот альбом перевернул, впрочем, не только мою музыкальную жизнь, продемонстрировав всю невообразимую силу таланта и мощь настоящего, не надуманного и не завуалированного, гения, имя которого навсегда останется в анналах музыкальной истории – нашей с вами истории. И имя это – Кристофер Йонссен (Christofer Johnsson). Альбом "Theli" перевернул и его жизнь, сделав 1996 год точкой отсчёта для всех, кто понимает толк в сложнейших оркестровых аранжировках и вычурном гитарном звучании. Год рождения того, что сейчас принято считать классикой симфонического металла, стиля, истинных представителей которого можно буквально пересчитать по пальцам одной руки.Мрачное тематическое оформление, выполненное в сюрреалистических тонах и оттенках, по мнению авторов, должно, наверняка, медленно и безмолвно подготавливать слушателя к восприятию основной темы повествования, заложенной в ядро музыкального и лирического пространств. Квинтэссенция тематического содержания альбома "Theli" (в переводе с иврита "Дракон") включает в себя различные мифические представления, видения, предсказания, базирующиеся на взглядах и логических науках Ложи Красного Дракона (во как!), куда Кристофер Йонссен смеет входить и духовным наставником которой является Томас Карлссон (не тот, что живёт на крыше, а некто, помогавший лидеру Therion'a творить для альбома некоторые тексты песен, и, начиная с 1998 года, писавший и пишущий поныне почти всю лирику команды целиком). По этой причине – организация также, как и её катехизис, всё-таки философская и таинственная – смысл лирики доступен лишь могучим разумам членов гильдии.В заключении хочется привести слова самого Кристофера Йонссена, подтверждающие мои умозаключения, высказанные во вступлении к теме: "Если речь идёт о последнем альбоме, то я скажу однозначно, что этим диском мною положено начало новой эры. Это не имеет ничего общего с высокомерием. Конечно, я довольно самоуверен, но было бы несерьезно, если бы после стольких альбомов я не был бы таковым. С этим альбомом я осуществил нечто, что грезилось мне с незапамятных времен. В этом альбоме я смог впервые по-настоящему проявиться во всей полноте, осуществить все то, что хотел и, наконец-то, мне не нужно было идти на компромиссы".Немного пребывает в летописи металла альбомов, ставших новой вехой в развитии музыкального искусства. Это те творческие свершения, которые действительно писали историю. "Theli" – один из них. К музыке Кристофера Йонссена можно относится по-разному, но с последним утверждение спорить бесполезно. Гениально и сложно!(c) metallibrary

1997 - A'arab Zaraq Lucid Dreaming

Список песен:01. (6:28) In Remembrance
02. (5:56) Black Fairy
03. (8:15) Fly to the Rainbow
04. (4:31) Children of the Damned
05. (4:36) Under Jolly Roger
06. (3:40) Symphony of the Dead
07. (3:22) Here tomes the tears
08. (4:22) Enter transcendental sleep (Therion Version)
09. (3:53) The quiet desert (Therion Version)
10. (2:54) Down the Qliphothic Tunnel (Therion Version)
11. (4:09) Up to Netzach - Floating Back (Therion Version)
12. (3:45) The fall into eclipse (Original Soundtrack)
13. (3:51) Enter transcendental sleep (Original Soundtrack)
14. (1:25) The gates to A'arab Zaraq are open (Original Soundtrack)
15. (3:52) The quiet desert (Original Soundtrack)
16. (2:53) Down the Qliphothic Tunnel (Original Soundtrack)
17. (2:53) Up to Netzatch (Original Soundtrack)
18. (0:49) Floating Back (Original Soundtrack)

Лог EAС

EAC extraction logfile from 16. December 2004, 13:29 for CD
Therion / A' arab Zaraq Lucid DreamingUsed drive : LITE-ON COMBO LTC-48161H Adapter: 1 ID: 1
Read mode : Secure with NO C2, accurate stream, NO disable cache
Combined read/write offset correction : 0
Overread into Lead-In and Lead-Out : NoUsed output format : Internal WAV Routines
44.100 Hz; 16 Bit; StereoOther options :
Fill up missing offset samples with silence : Yes
Delete leading and trailing silent blocks : No
Native Win32 interface for Win NT & 2000Range status and errors
Selected range
Filename D:\Therion\CDImage.wav Peak level 98.7 %
Range quality 100.0 %
CRC C518FB70
Copy OKNo errors occuredEnd of status report_______________________Оффсет откорректирован с помощью offix32 на +6, с совпадением по базе AccurateRip - confidence 7

Лог AccurateRip

E:\Музыка\Therion\>arcue.exe A' arab Zaraq Lucid Dreaming.cueA' arab Zaraq Lucid Dreaming.cue:Checking AccurateRip databaseTrack Ripping Status [Disc ID: 00371f0d-0410c612] 1 Accurately Ripped (confidence 7) [76c8f554]
2 Accurately Ripped (confidence 7) [d0800af2]
3 Accurately Ripped (confidence 7) [5cccaace]
4 Accurately Ripped (confidence 7) [d68502c2]
5 Accurately Ripped (confidence 7) [7bce43ec]
6 Accurately Ripped (confidence 7) [2419ac85]
7 Accurately Ripped (confidence 7) [cd7e5d2d]
8 Accurately Ripped (confidence 7) [77f6cd51]
9 Accurately Ripped (confidence 7) [2540bcc9]
10 Accurately Ripped (confidence 7) [1484ad06]
11 Accurately Ripped (confidence 7) [65abc111]
12 Accurately Ripped (confidence 7) [2c732979]
13 Accurately Ripped (confidence 7) [9e476d5b]
14 Accurately Ripped (confidence 7) [6928f647]
15 Accurately Ripped (confidence 7) [743229b1]
16 Accurately Ripped (confidence 7) [8d47446c]
17 Accurately Ripped (confidence 7) [cd0fbe9e]
18 Accurately Ripped (confidence 7) [f5751d5c]_______________________All Tracks Accurately Ripped.
Цитата:Сразу оговорюсь: этот альбом предназначен только для фанатов обозреваемого бэнда и вряд ли будет хоть сколько-нибудь интересен стороннему слушателю. Собственно, это и не альбом даже, а своеобразная компиляция, позиционируемая как "подарок поклонникам на 10-летний юбилей группы". После выхода "A'arab Zaraq..." критики обвинили группу в продажности, в конъюктурности и зашибании бабла (напомню, что предыдущий "Theli" был сверхуспешным релизом, качественно новым явлением в металле и ставший к сегодняшнему дню классикой симфо-металла). Хотя все высказывания критиков вряд ли истинны в последней инстанции – ибо сам Кристофер Йонссон обращал внимание музыкальной общественности на то, что тратить свои кровные на сей диск следует лишь определенной категории людей.Итак, что же представляет собой пресловутый "подарок"? Начнем по порядку. Первые два трека были сочинены еще во время записи "Theli", но, поскольку они несколько уступали остальному материалу, в основной альбом их включать постеснялись. Здесь вы не услышите хора, но зато вам предоставляется еще одна возможность насладиться бесподобным вокалом Дэна Свано, которому помогает ударник/вокалист Петр Ваврженюк. Далее следуют четыре кавер-версии: "Children Of The Damned" (Iron Maiden), "Fly To The Rainbow" (Scorpions), "Here Comes The Tears" (Judas Priest) и "Under Jolly Roger" (Running Wild). И вот тут, как бы помягче сказать... На всех каверах, за исключением "Under Jolly Roger", вокалирует Ваврженюк, но... если его своеобразная манера пения очень интересно вплетается в лид-вокал Дэна Свано или в симфонический хор, то потуги спеть в духе Клауса Майне, Роба Хэлфорда или Брюса Дикинсона смотрятся ... несколько кургузо, что ли. Хотя должен сказать, что инструментально все кавера проработаны на уровне (а "Fly To The Rainbow" вообще превратили в красивую восьмиминутную вещь). Что же касается "Under Jolly Roger" (стилизованный под концертное исполнение), то здесь все на уровне – звучит прикольно, забойно и интересно, вокал Тобби Сайдгарда смотрится/слушается на порядок интереснее голоса Ваврженюка.После этого музыкального коктейля следует укороченная переаранжированная инструментальная версия великолепной "Symphony Of The Dead" и далее – оригинальный саундтрек к фильму Пера Албинсона "The Golden Embrace" (к нему Кристофер Йонссон писал музыку как сессионный музыкант) и "терионизированные" версии этого самого саундтрека (с гитарами, оркестровками, хорами и прочее). К сожалению, сам фильм Ваш покорный слуга не имел счастье наблюдать, посему ничего про него сказать не может. Единственное, о чем он может заявить с уверенностью – о том, что эта часть пластинки уж точно никого, кроме фанатов, не заинтересует. Все, больше говорить не о чем. Такой вот релиз из категории for fans only.
(c) metallibrary

1998 - Vovin

01. (6:46) The rise of sodom and gomorrah
02. (5:15) Birth of venus illegitima
03. (5:05) Wine of Aluqah
04. (8:50) Clavicula nox
05. (3:49) The wild hunt
06. (6:20) Eye of Shiva
07. (5:11) Black sun
08. (1:29) The opening
09. (3:35) Morning star
10. (2:59) Black diamonds
11. (5:57) Raven of dispersion

Лог EAC

EAC extraction logfile from 31. December 2004, 14:09 for CD
Therion / VovinUsed drive : LG DVD-ROM DRD8160B Adapter: 1 ID: 1
Read mode : Secure with NO C2, accurate stream, disable cache
Combined read/write offset correction : 0
Overread into Lead-In and Lead-Out : NoUsed output format : C:\Archivos de programa\Exact Audio Copy\MAC.exe (Monkey's Audio Lossless Encoder)
High Lossless CompressionOther options :
Fill up missing offset samples with silence : Yes
Delete leading and trailing silent blocks : No
Installed external ASPI interfaceRange status and errors
Selected range
Filename C:\Archivos de programa\mp3&videos\Therion-Vovin\CDImage.wav Peak level 97.9 %
Range quality 100.0 %
CRC 61F73157
Copy OKNo errors occuredEnd of status report_______________________Оффсет откорректирован с помощью offix32 на +594, с совпадением по базе AccurateRip - confidence 22.

Лог AccurateRip

c:\Users\Виктор\Downloads\eMule\1\Vovin>arcue.exe 1.cue
1.cue:Checking AccurateRip databaseTrack Ripping Status [Disc ID: 0018e46f-a60cf30b] 1 Accurately Ripped (confidence 22) [d7172e3a]
2 Accurately Ripped (confidence 21) [408da107]
3 Accurately Ripped (confidence 21) [c55b91e8]
4 Accurately Ripped (confidence 21) [a39fcb3a]
5 Accurately Ripped (confidence 21) [a245fe19]
6 Accurately Ripped (confidence 21) [fbdb016a]
7 Accurately Ripped (confidence 21) [12b9ccf7]
8 Accurately Ripped (confidence 21) [d6a0af92]
9 Accurately Ripped (confidence 22) [8c4587ef]
10 Accurately Ripped (confidence 21) [6eca445d]
11 Accurately Ripped (confidence 18) [f4afe143]_______________________All Tracks Accurately Ripped.

-
Цитата:Это, безусловно, самый неоднозначно воспринятый в музыкальных кругах альбом Therion'а. Но обо всем по порядку.После выхода ураганного "Theli" группа наконец-таки получила достаточный бюджет, чтобы позволить себе работу с настоящим симфоническим оркестром. Снова был задействован хор, оперные певцы, а также известные в металлических кругах вокалистки Сара Джезабель Дева (Cradle Of Filth) и Мартина Хорнбахер (Dreams Of Sanity), с гитарными партиями помог достаточно известный саундпродюсер Вальдемар Сорихта. Засветилась и такая личность, как Ральф Шиперс. Казалось бы, публика априори на ура воспримет это творение, но...Супер-пупер-тру металхеды-экстремалы сразу же возненавидели альбом за некоторую мягкость, неагрессивность, что ли. В отличие от предыдущего блокбастера подавляющее большинство композиций выдержано в медленном темпе, нет больше вкраплений дэтового войса Йонссона. Обилие клавиш и симфонические инструменты, несколько более прямолинейные гитары – все это, а так же то, что "Vovin" занял высокие позиции в чартах, и по сей день продолжает оставаться самым продаваемым альбомом Therion, стало тем самым аргументом экстремально настроенной публики, который приказал на группу отныне забить и новые творения нещадно охаивать с позиции "это-не-андерграунд". А меж тем, зря это все... Альбом-то ведь очень хороший. По крайней мере, если на фоне остальных творений Йонссона и компании он, может быть, и не самый лучший, то, будучи поставлен в один ряд с полноформатниками многих других банд, заслуживает одной из самых высоких оценок.Собственно, уже говорилось, что общий настрой очень ровный и спокойный. Диск открывается несколько пространным оркестрово-клавишным вступлением, мягкие (но ни в коем случае не примитивные!) мелодии правят балом, вокал нет смысла описывать – он великолепен, как всегда, музыка как-то по особому таинственна и несет в себе какую-то скрытую притягательность. Безусловно, публика рассчитывала услышать нечто в духе "Theli", а услышала несколько иное, но получилось то, что получилось... Кому-то диск кажется слегка занудным, но на самом деле для его восприятия нужно соответствующее настроение: с первого раза я и сам, как говорится, "не догнал"... Кстати, слово "vovin" на енохианском означает "дракон", т.е. в музыкальном смысле, цитируя Йонссона, развитие начатого на прошлом творении – больше полифонии, больше "оперности" и прочего. Опять-таки, нет смысла выделять какие-то отдельные композиции, настолько все цельно и продуманно. Лишь два трека несколько выбиваются из общего полотна: быстрые "Wine Of Aluqah" и "The Wild Hunt" (на последней великолепно спел вышеупомянутый Ральф Шиперс). Завершается же альбом трехчастным эпиком "Draconian Trilogy".(c) metallibrary

1998 - Vovin (+Bonus)

Список песен:01. (6:44) The Rise Of Sodom And Gomorrah
02. (5:13) Birth Of Venus Illegitima
03. (5:03) Wine Of Aluqah
04. (8:47) Clavicula Nox
05. (3:47) The Wild Hunt
06. (6:17) Eye Of Shiva
07. (5:09) Black Sun
08. (1:29) Draconian Trilogy. Part I : The Opening
09. (3:35) Draconian Trilogy. Part Ii : Morning Star
10. (2:57) Draconian Trilogy. Part Iii : Black Diamonds
11. (5:57) Raven Of Dispersion
12. (4:08) The King (Bonus Track)

Лог EAC

Exact Audio Copy V0.99 prebeta 4 from 23. January 2008Отчёт EAC об извлечении, выполненном 24. июля 2008, 19:40Therion / VovinДисковод: MATSHITADVD-RAM UJ-850S Adapter: 0 ID: 0Режим чтения : Достоверность
Использование точного потока : Да
Отключение кэша аудио : Да
Использование указателей C2 : ДаКоррекция смещения при чтении : 102
Способность читать области Lead-in и Lead-out : Нет
Заполнение пропущенных сэмплов тишиной : Да
Удаление блоков с тишиной в начале и конце : Нет
При вычислениях CRC использовались нулевые сэмплы : Нет
Интерфейс : Встроенный Win32-интерфейс для Win NT/2000Выходной формат : Внутренние WAV-операции
Формат сэмплов : 44.100 Гц; 16 бит; стереоTOC извлечённого CDТрек | Старт | Длительность | Начальный сектор | Конечный сектор
---------------------------------------------------------------------
1 | 0:00.00 | 6:44.37 | 0 | 30336
2 | 6:44.37 | 5:13.37 | 30337 | 53848
3 | 11:57.74 | 5:02.61 | 53849 | 76559
4 | 17:00.60 | 8:47.37 | 76560 | 116121
5 | 25:48.22 | 3:47.17 | 116122 | 133163
6 | 29:35.39 | 6:17.09 | 133164 | 161447
7 | 35:52.48 | 5:08.44 | 161448 | 184591
8 | 41:01.17 | 1:28.40 | 184592 | 191231
9 | 42:29.57 | 3:34.53 | 191232 | 207334
10 | 46:04.35 | 2:56.42 | 207335 | 220576
11 | 49:01.02 | 5:57.29 | 220577 | 247380
12 | 54:58.31 | 4:08.28 | 247381 | 266008Характеристики диапазона извлечения и сообщения об ошибкахВыбранный диапазонИмя файла C:\Users\natka\Desktop\Therion - Vovin.wavПиковый уровень 100.0 %
Качество диапазона 100.0 %
CRC копии 534100F5
Копирование... OKОшибок не произошло

1999 - Crowning Of Atlantis

Список песен:01. (4:58) The Crowning Of Atlantis
02. (5:01) Mark Of Cain
03. (8:52) Clavicula Nox
04. (3:43) Crazy Nights (Loudness Cover)
05. (3:17) From The Dionysian Days
06. (4:47) Thor The Powerhead (Manowar Cover)
07. (4:23) Seawinds
08. (6:41) To Mega Therion (Live)
09. (3:22) The Wings Of The Hydra (Live)
10. (5:46) Black Sun (Live)

Лог EAC

EAC extraction logfile from 12. December 2005, 18:26 for CD
Therion / Crowning Of AtlantisUsed drive : LITE-ON DVDRW SOHW-1693S Adapter: 1 ID: 0
Read mode : Secure with NO C2, accurate stream, disable cache
Read offset correction : 12
Overread into Lead-In and Lead-Out : NoUsed output format : C:\Program Files\FLAC\flac.exe (User Defined Encoder)
320 kBit/s
Additional command line options : -6 -V -T "artist=%a" -T "title=%t" -T "album=%g" -T "date=%y" -T "tracknumber=%n" -T "genre=%m" -T "comment=EAC 0.95 prebeta5 / FLAC 1.1.2 k" %sOther options :
Fill up missing offset samples with silence : Yes
Delete leading and trailing silent blocks : No
Native Win32 interface for Win NT & 2000Range status and errors
Selected range
Filename C:\Documents and Settings\Sober\Pulpit\Therion - Crowning Of Atlantis [FLAC]\Therion - Crowning Of Atlantis.flac.wav Peak level 97.9 %
Range quality 99.9 %
CRC 37D24317
Copy OKNo errors occuredEnd of status report
Цитата:"Crowning Of Atlantis" изначально планировался как мини-диск из серии "только для своих" вдогонку "Vovin", но хитрые толстосумы с Nuclear Blast'а раскрутили-таки группу на выпуск полнометражника. Однако, в противоположность "A'arab Zaraq...", обозреваемый релиз получился гораздо более интересным, и привлекательным не только для фанатов, но и для простых смертных тоже.Открывается альбом симпатичной заглавной вещью, далее идет "Mark Of Cain" (которая не попала на "Vovin" по техническим причинам), после – переаранжированная (на мой взгляд, в лучшую сторону) "Clavicula Nox" с добавлением большего количества клавиш. Собственно, здесь принимали участие практически те же лица что и на "Vovin", так что эта часть получилась по настрою довольно похожей на предыдущий альбом, только на заглавной композиции отстучал новый великолепный ударник – Сами Карпинен. Еще одна вещь из той же оперы – "From The Dionysian Days". Кроме этого, группа снова решила намолотить несколько кавер-версий, причем последние получились на порядок удачнее, чем кавера с упомянутого уже "A'arab Zaraq...". Первый из них – это добротный хэви-металлический "Crazy Nights" от японской группы Loudness. Дальше идет Manowar'овский "Thor" – сногсшибательная вещь, оригиналу ни в коей мере не уступает. На обоих этих треках вокальные партии исполнил Ральф Шиперс, чья работа на "Vovin" очень впечатлила Кристофера Йонссона (и неспроста – не в последнюю очередь кавер-версии своей притягательностью обязаны именно его голосу). Наконец, третий кавер – "Seawinds" от Accept – душещипательная баллада с женским вокалом и проникновенным гитарным соло. Сам Йонссон говорит, что первые две кавер-версии сделаны в приближении к оригиналу, т.е. "ради забавы" (читай – на потребу Nuclear Blast), а в "Seawinds" банда постаралась внести свою терионовскую изюминку. Что ж, ей это в очередной раз удалось.Ну и наконец, завершают альбом три live-композиции: крепкий хит "To Mega Therion" с "Theli", дэтовая "The Wings Of The Hydra" (с альбома "Lepaca Kliffoth") и "Black Sun" (с альбома "Vovin"). В отличие от записей с видеокассеты, эти концертные треки слушаются на ура (особенно почему-то дэтовая "The Wings Of The Hydra", имхо, слушается поинтересней, чем в студийном варианте). Звучание их несколько утяжелено по сравнению с оригинальными версиями, и особенный восторг вызывает работа нового ударника Сами Карпинена – потрясающая техника и узнаваемая манера игры.Итого: очень неплохой и разноплановый релиз, который не будет лишним даже в коллекции слушателей, не принадлежащих к когорте фанатов Therion.
(c) metallibrary

2000 - Deggial

Список песен:01. (3:36) Seven Secrets of the Sphinx
02. (7:11) Eternal Return
03. (6:39) Enter Vril-ya
04. (6:29) Ship of Luna
05. (5:10) The Invincible
06. (5:04) Deggial
07. (5:29) Emerald Crown
08. (1:23) The Fight of the Lord of Lies
09. (4:06) Flesh of the Gods
10. (9:33) Via Nocturna (part 1 and 2)
11. (3:21) O Fortuna

Лог EAC

EAC extraction logfile from 5. February 2006, 14:14 for CD
Therion / DeggialUsed drive : LITE-ON DVDRW SOHW-1673S Adapter: 1 ID: 0
Read mode : Secure with NO C2, accurate stream, disable cache
Read offset correction : 12
Overread into Lead-In and Lead-Out : NoUsed output format : C:\Program Files\FLAC\flac.exe (User Defined Encoder)
320 kBit/s
Additional command line options : -6 -V -T "artist=%a" -T "title=%t" -T "album=%g" -T "date=%y" -T "tracknumber=%n" -T "genre=%m" -T "comment=EAC 0.95 prebeta5 / FLAC 1.1.2a" %sOther options :
Fill up missing offset samples with silence : Yes
Delete leading and trailing silent blocks : No
Native Win32 interface for Win NT & 2000Range status and errors
Selected range
Filename E:\Therion [2000] [CD] Deggial [EAC-FLAC] by MeHow [MeTaLMaDNeSS.TeaM]\CDImage.flac.wav Peak level 99.4 %
Range quality 100.0 %
CRC 71C11B31
Copy OKNo errors occuredEnd of status report

Лог AccurateRip

c:\ГО-FLAC>arcue CDImage.cue
CDImage.cue:Checking AccurateRip databaseTrack Ripping Status [Disc ID: 00188dfd-900d9a0b] 1 Accurately Ripped (confidence 7) [a481b035]
2 Accurately Ripped (confidence 7) [e3c68622]
3 Accurately Ripped (confidence 7) [c39767a3]
4 Accurately Ripped (confidence 7) [2b21336e]
5 Accurately Ripped (confidence 7) [0e9c29e1]
6 Accurately Ripped (confidence 7) [dc057d8d]
7 Accurately Ripped (confidence 7) [e6684ceb]
8 Accurately Ripped (confidence 7) [4cbbdfad]
9 Accurately Ripped (confidence 9) [b7cd5f3b]
10 Accurately Ripped (confidence 7) [abfb82d3]
11 Accurately Ripped (confidence 7) [f4a33b77]_______________________All Tracks Accurately Ripped.

-
Цитата:Очередной альбом классиков симфо-металла, опять-таки довольно противоречиво оцененный слушателями. По сравнению с предыдущими работами значительно возросла роль оркестра: теперь он состоит не только из струнных инструментов, помимо них используется целый набор различных флейт, гобоев и труб, а также оркестровые ударные и контрабас. В музыке здесь гораздо меньше металлической составляющей, гитарные партии сведены к минимуму и в большинстве случаев служат лишь ритмической основой композиций. Более разноплановыми стали и оперные вокальные партии – теперь они исполняются исключительно оперными артистами. То есть, как говорит сам Кристофер Йонссон, альбом получился этакой смесью из сложных оркестровых аранжировок и довольно-таки примитивного по исполнению хэви-металла конца начала 80-х годов. В целом, сильно сказывается увлечение лидера группы классической музыкой.Помимо этого, приятным сюрпризом стало участие Ханзи Кюрша (Blind Guardian) в качестве основного вокалиста в песне "Flesh Of The Gods", которая всеми критиками единодушно признается одной из самых лучших на диске. Вообще, все композиции на альбоме многоплановые, средней продолжительностью около 5-6 минут. Особенно великолепна двухчастная монументальная "Via Nocturna" – просто убивает наповал величественными и навороченными вокальными партиями и сложностью оркестровок. Про остальные вещи тоже, хоть убейте, ничего плохого сказать язык не поворачивается – незабываемое сочетание воздушных и атмосферных клавишно-оркестровых мелодий с энергетикой "мейденовских" прямолинейных гитарных риффов. В принципе, многим критикам альбом кажется занудным именно по этой причине – "слишком уж тут много оркестра, вторично все, гитарных же запилов и наворотов практически 0%". Ну да Господь с ними, мы-то ведь, к счастью, никакие не критики, а всего лишь поклонники красивой музыки, следовательно, можем смело забить на все разговоры о вторичности и от души наслаждаться альбомом "Deggial". Музыка на диске оставляет только лишь самые благоприятные впечатления и несет на себе исключительно положительный заряд. Ну а завершается это великолепие кавером "O Fortuna", принадлежащему перу Карла Орффа.Итого: Йонссон в очередной раз подарил миру прекрасный альбом и не дал повод усомниться в творческой молодости коллектива.(c) metallibrary

2001 - Secret of the Runes

Список песен:01. (6:10) Ginnungagap - The Black Hole
02. (5:04) Midgеrd - Old Midgеrd
03. (4:07) Asgеrd - The Bifrost Bridge
04. (3:43) Jotunheim - Call Of Jotunheim
05. (5:18) Schwarzalbenheim - Gold Der Underwelt
06. (3:55) Ljusalfheim - The Shining Ones
07. (2:14) Muspelheim - Gudaskymning
08. (4:36) Nifelheim - Dimmornas Vдrld
09. (4:04) Vanaheim - Seed Of Ing
10. (3:18) Helheim - Den Dimhцljda
11. (4:30) Secret of the Runes

Лог EAC

EAC extraction logfile from 2. March 2005, 9:34 for CD
Therion / Secret of the RunesUsed drive : ARTEC WRA-WA48 Adapter: 1 ID: 1
Read mode : Secure with NO C2, accurate stream, NO disable cache
Combined read/write offset correction : 0
Overread into Lead-In and Lead-Out : NoUsed output format : C:\Program Files\FLAC\flac.exe (User Defined Encoder)
Additional command line options : -6 -T "artist=%a" -T "title=%g" -T "album=%g" -T "date=%y" -T "genre=%m" -T "comment=EAC/FLAC1.1.1a - Gjak" %sOther options :
Fill up missing offset samples with silence : Yes
Delete leading and trailing silent blocks : No
Native Win32 interface for Win NT & 2000Range status and errors
Selected range
Filename C:\Therion - Secret of the Runes 01\CDImage.flac.wav Peak level 97.9 %
Range quality 99.9 %
CRC 0D700FCC
Copy OKNo errors occuredEnd of status report_______________________Оффсет откорректирован с помощью offix32 на +97, с совпадением по базе AccurateRip - confidence 8.

Лог AccurateRip

c:\ГО-FLAC>arcue.exe CDImage.flac.cue
CDImage.flac.cue:Checking AccurateRip databaseTrack Ripping Status [Disc ID: 0014845a-980b030b] 1 Accurately Ripped (confidence 8) [8339973a]
2 Accurately Ripped (confidence 8) [d15bf8fe]
3 Accurately Ripped (confidence 7) [4b206de8]
4 Accurately Ripped (confidence 8) [780d1b28]
5 Accurately Ripped (confidence 8) [8c18e004]
6 Accurately Ripped (confidence 8) [f640c8b8]
7 Accurately Ripped (confidence 7) [dde5ae28]
8 Accurately Ripped (confidence 8) [63e75a6a]
9 Accurately Ripped (confidence 8) [0887e882]
10 Accurately Ripped (confidence 7) [7c853c58]
11 Accurately Ripped (confidence 8) [84bc8951]_______________________All Tracks Accurately Ripped.

-
Цитата:Последний на сегодняшний день студийник Therion. И на этот раз группой остались довольны практически все: и ненавистники симфонических наворотов, и поклонники атмосферной музыки. По моему скромному мнению, этот альбом – лучшее, что создал Йонссон после "Theli".Лирика посвящена в этот раз скандинавской мифологии. Как рассказывает Йонссон в интервью журналу "М", "основу альбома составляет повествование о священном дереве Иггдрасиль, и каждая песня посвящена одному из миров, которые оно объединяет. Имеются также пролог и эпилог: пролог – это точка отсчета, точка сотворения всего сущего, на которой сошлись лед и пламень и, взорвавшись, создали мир... Эпилог же – своеобразное подведение итогов, квинтэссенция всего альбома: путешествие через все миры Иггдрасиля и, в конце этого путешествия, нахождение священных рун, мудрости рун, их секретов". Так что альбом обязателен к прослушиванию всем поклонникам скандинавской мифологической культурой. Отдельное спасибо за буклет: полноцветная многостраничная брошюра с комментариями к каждой песне, Томас Эверхард потрудился на славу.А что же музыка, спросите Вы? По сравнению с прошлым "Deggial", музыка эволюционировала, но не в том направлении, в каком можно было ожидать. В общем и целом музыкальный ряд значительно утяжелел, теперь на переднием плане – гитары, бас и ударные (барабанщик Сами Карпинен rulez forever!!!), оркестру же отведена гораздо более скромная роль, и оркестровые партии теперь служат своеобразной "подушкой" под основные инструменты, а не наоборот. Но надо отметить, что это обстоятельство ни в коей мере не умаляет их значение. Вокал же нет смысла описывать, настолько он здесь бесподобен, настолько он проработан, что просто нет слов. Чего только стоят хоровые партии в "Nifelheim" (сильнейшая вещь!) и "Asgard". Помимо этого, на одной из песен решил прошептать несколько строк Томас Карлссон, автор лирики Therion. Ну и, по традиции, в качестве бонус-треков даны два кавера: на Scorpions ("Crying Days") и Abba ("Summernight City" – поп-музыку умудрились превратить в сногсшибательный боевик; кстати, здесь можно услышать вокал Петра Ваврженюка, покинувшего группу после турне с альбомом "Theli").Резюме: с этого альбома можно начинать знакомится с творчеством группы. Рекомендуется всем без исключения – разочарованы точно не будете.
(c) metallibrary

2001 - Secret of the Runes (Digipack Bonus)

Список песен:01. (6:10) Ginnungagap
02. (5:04) Midgеrd
03. (4:07) Asgеrd
04. (3:43) Jotunheim
05. (5:18) Schwarzalbenheim
06. (3:55) Ljusalfheim
07. (2:14) Muspelheim
08. (4:36) Nifelheim
09. (4:04) Vanaheim
10. (3:18) Helheim
11. (5:31) Secret Of The Runes
12. (4:32) Crying Days (bonustrack)
13. (4:55) Summernight City (bonustrack)

Лог EAC

EAC extraction logfile from 18. June 2007, 0:19 for CD
Therion / Secret Of The RunesUsed drive : SONY CD-RW CRX225E Adapter: 0 ID: 1
Read mode : Secure with NO C2, accurate stream, disable cache
Read offset correction : 6
Overread into Lead-In and Lead-Out : NoUsed output format : C:\Archivos de programa\Exact Audio Copy\FLAC.EXE (User Defined Encoder)
32 kBit/s
Additional command line options : -6 -V -T "artist=%a" -T "title=%t" -T "album=%g" -T "date=%y" -T "tracknumber=%n" -T "genre=%m" -T "comment=EAC 0.9beta4 / FLAC 1.1.0 q6" %sOther options :
Fill up missing offset samples with silence : Yes
Delete leading and trailing silent blocks : No
Native Win32 interface for Win NT & 2000Range status and errors
Selected range
Filename D:\MMT\LOSSLESS\THERION [2001] [CD] SECRET OF THE RUNES (Digipack) [EAC-FLAC] BY APHET [MeTaLMaDNeSS. TeaM]\Secret Of The Runes (Digipack).FLAC.wav Peak level 97.9 %
Range quality 100.0 %
CRC 85A51610
Copy OKNo errors occuredEnd of status report

Лог AccurateRip

c:\ГО-FLAC>arcue.exe SecretOfTheRunes(Digipack).cue
SecretOfTheRunes(Digipack).cue:Checking AccurateRip databaseTrack Ripping Status [Disc ID: 001c2268-b40d760d] 1 Accurately Ripped (confidence 22) [65f1db0e]
2 Accurately Ripped (confidence 21) [03672bc5]
3 Accurately Ripped (confidence 21) [9ce0295f]
4 Accurately Ripped (confidence 21) [f5c10075]
5 Accurately Ripped (confidence 21) [596558da]
6 Accurately Ripped (confidence 21) [78205fd0]
7 Accurately Ripped (confidence 21) [92d719ae]
8 Accurately Ripped (confidence 21) [53e7dbe5]
9 Accurately Ripped (confidence 21) [c489b58d]
10 Accurately Ripped (confidence 22) [1a0ed76e]
11 Accurately Ripped (confidence 20) [6f2d2a30]
12 Accurately Ripped (confidence 21) [146c180f]
13 Accurately Ripped (confidence 20) [bbffca3a]_______________________All Tracks Accurately Ripped.

-
Цитата:Новый альбом мастеров sympho-metall'а Therion – "Secret Of The Runes – успешно продолжил традиции предыдущего их творения "Deggial". Правда, теперь тематика альбома сместилась от восточной мифологии к скандинавским мифам, а именно – к рунам главного скандинавского бога Одина. Каждая песня – одна руна, плюс концовка – "секрет рун". Как гласит текст в буклете – "Когда вы узнаете секрет рун, ваши глаза откроются, и вы станете богом". Судя по всему, в альбоме строго соблюдаются копирайты и за полной версией секрета надо обращаться непосредственно к правообладателю (к Одину). Во всяком случае, я в себе никаких божественных изменений после прослушивания песен не заметил. Но вернусь к самому творению. Со времен "Deggial'a" произошли некоторые технические изменения – альбом был записан в новой студии, его сведением занимались Микко Кармила и Мика Джуссила из Finnvox, до этого работавшие с Nightwish, Children Of Bodom и другими знаменитыми группами, что сказалось на звучаниии. На звучании сказалась также и замена оркестра на больший, а также смена состава хора. Мелодии теперь стали более нагруженными, сольные вокальные партии более "оперными". Вступительная песня альбома "Ginnungagap" была написана лидером группы Кристофером Джонсоном совместно с гитаристом Кристианом Ниеманном – получилась достаточно симатичная вещица, хотя восточные мотивы в ее вступлении немного не к месту на диске с чисто скандинавской тематикой. Хочется также отметить песню "Ljusalfheim", в которой вы можете услышать голос, а точнее, шепот Томаса Карлссона – автора текстов Therion'a. Хотя самая примечательная песня на альбоме, на мой взгляд, вторая – "Midgard" – достаточно спокойная, почти что баллада, если это слово можно применить к творчеству Therion'a. Плюс на альбом вошли два бонуса – по традиции, это римейки песен 70-х. В этот раз это песни "Summernight City" от ABBA и "Crying Days" от Scorpions (хотя на российское издание вкралась ошибка, и вместо "Crying Days" на альбом попала песня "Polar Nights", присутствовшая на Deggial). Вообще, "Secret Of The Runes" – это такой диск, который начинает нравится не после первого прослушивания, а раза так с 3-го – 4-го. Итог: В целом альбом получился весьма добротным, хотя и немного скучноватым. Из-за чего он и не получил оценки "5".(c) metallibrary

2002 - Live In Midgard

Список песен:CD1:01. (6:38) Ginnungagap
02. (5:23) Invocation of Naamah
03. (5:20) Birth of Venus Illegitima
04. (7:01) Enter VrilYa
05. (3:13) Riders of Theli
06. (3:46) Symphony of The Dead
07. (2:22) A Black Rose
08. (2:40) The Return
09. (2:21) Baal Religion
10. (4:20) Flesh of The Gods
11. (5:02) Serwinds
12. (3:40) Schwarzalbenhein
13. (5:40) In The Desert of SetCD2:01. (3:26) The Wings of The Hydra
02. (4:13) Asgard
03. (4:24) The Sercrets of the Runes
04. (5:54) The Rise of Sodom and Gomorrah
05. (5:11) Summernight City
06. (3:42) Beauty in Black
07. (3:39) Seventh Secrets of the Sphinx
08. (4:54) The Wine of Aluqah
09. (6:26) The Raven of Dispersion
10. (8:31) To Mega Therion
11. (6:38) Cults of the Shadow

Лог EAC. CD1

EAC extraction logfile from 20. May 2004, 23:20 for CD
Therion / Live In Midgard CD1Used drive : HL-DT-STCD-RW GCE-8400B Adapter: 2 ID: 1
Read mode : Secure with C2, accurate stream, disable cache
Combined read/write offset correction : 0
Overread into Lead-In and Lead-Out : NoUsed output format : G:\Emule\incoming\AUDIOMAD.V0.99.BETA.(MeTaLMaDNeSS.TeaM)\AUDIOMAD\LAME.EXE (Monkey's Audio Lossless Encoder)
High Lossless Compression
Additional command line options : %l--alt-preset 128%l%h--alt-preset standard%h %s %dOther options :
Fill up missing offset samples with silence : Yes
Delete leading and trailing silent blocks : No
Installed external ASPI interfaceRange status and errors
Selected range
Filename G:\Emule\incoming\Therion1.wav Peak level 99.4 %
Range quality 100.0 %
CRC 03C08FC2
Copy OKNo errors occuredEnd of status report_______________________Оффсет откорректирован с помощью offix32 на +12, с совпадением по базе AccurateRip - confidence 3.

Лог AccurateRip. CD1

E:\Музыка\Therion>arcue.exe Therion - Live In Midgard. CD1.cue
Therion - Live In Midgard. CD1:Checking AccurateRip databaseTrack Ripping Status [Disc ID: 001d6bad-ab0d750d] 1 Accurately Ripped (confidence 3) [25fc27d6]
2 Accurately Ripped (confidence 3) [23e5864e]
3 Accurately Ripped (confidence 3) [93c17f4f]
4 Accurately Ripped (confidence 3) [73e14f95]
5 Accurately Ripped (confidence 3) [48d289c4]
6 Accurately Ripped (confidence 3) [3c8d694b]
7 Accurately Ripped (confidence 3) [a0e3d23c]
8 Accurately Ripped (confidence 3) [c82826f6]
9 Accurately Ripped (confidence 3) [ba98e835]
10 Accurately Ripped (confidence 3) [d1155281]
11 Accurately Ripped (confidence 3) [416558da]
12 Accurately Ripped (confidence 3) [eb58cc5b]
13 Accurately Ripped (confidence 3) [53037f51]_______________________All Tracks Accurately Ripped.

Лог EAC. CD2

EAC extraction logfile from 21. May 2004, 11:21 for CD
Therion / Live In Midgar CD2Used drive : HL-DT-STCD-RW GCE-8400B Adapter: 2 ID: 1
Read mode : Secure with C2, accurate stream, disable cache
Combined read/write offset correction : 0
Overread into Lead-In and Lead-Out : NoUsed output format : G:\Emule\incoming\AUDIOMAD.V0.99.BETA.(MeTaLMaDNeSS.TeaM)\AUDIOMAD\LAME.EXE (Monkey's Audio Lossless Encoder)
High Lossless Compression
Additional command line options : %l--alt-preset 128%l%h--alt-preset standard%h %s %dOther options :
Fill up missing offset samples with silence : Yes
Delete leading and trailing silent blocks : No
Installed external ASPI interfaceRange status and errors
Selected range
Filename G:\Emule\incoming\Therion2.wav Peak level 98.0 %
Range quality 99.9 %
CRC 821477B2
Copy OKNo errors occuredEnd of status report_______________________Оффсет откорректирован с помощью offix32 на +12, с совпадением по базе AccurateRip - confidence 4.

Лог AccurateRip. CD1

E:\Музыка\Therion>arcue.exe Therion - Live In Midgard. CD2.cue
Therion - Live In Midgard. CD2:Checking AccurateRip databaseTrack Ripping Status [Disc ID: 00150164-700d590b] 1 Accurately Ripped (confidence 4) [46f09eb1]
2 Accurately Ripped (confidence 4) [fa46b843]
3 Accurately Ripped (confidence 4) [2eed3011]
4 Accurately Ripped (confidence 4) [ef9ebb75]
5 Accurately Ripped (confidence 4) [655cff88]
6 Accurately Ripped (confidence 4) [b80f3606]
7 Accurately Ripped (confidence 4) [0ccc3647]
8 Accurately Ripped (confidence 4) [3e8bbae9]
9 Accurately Ripped (confidence 4) [cc2e7b03]
10 Accurately Ripped (confidence 4) [2221ea42]
11 Accurately Ripped (confidence 4) [a8dd25f2]_______________________All Tracks Accurately Ripped.

-
Цитата:"Когда мы вернулись домой с концертного тура и прослушали различные записи, сделанные в его процессе, было принято решение выпустить живой альбом... На гастролях мы играли в разных местах, начиная со среднего размера клубов для нескольких сот человек и заканчивая большими залами, где аудитория состояла из тысяч людей. Было очень заманчиво для создания альбома использовать лишь записи больших залов и кричащие голоса тысяч фанатов между песнями. Но мы чувствуем, что это не только живой альбом, но и звуковое подтверждение того, что мы сделали во время последнего тура, и оно должно отражать все его аспекты. В конце концов мы приняли решение собрать песни из разных мест для того, чтобы создать полную картину "живого" Териона".Кристофер Йонссон, лето 2002Сказать, что я ждал этого события достаточно давно и с нетерпением, значит покривить душой. Вы будете удивлены подобным заявлением давнишнего и преданного фаната данного коллектива, но пару лет назад я и предположить не мог, что своё пятнадцатилетие Therion справит выходом концертного альбома. Как-то не возникало похожей мысли, особенно после того, как из дэт-явления Йонссон сотоварищи переквалифицировался в нечто, к дэту не имеющее даже касательного отношения – действительно, можно ли перенести всю мелодику, состоящую из блестящих оркестровок и бесподобных хоровых произведений, на концертные площадки? Не станет же группа возить с собой целый хор и оркестр в придачу – разорится в мгновение ока! Оказалось, что таких дорожных издержек не потребовалось для создания фирменной атмосферы шведских симфо-металлистов. Все достаточно скромно и со вкусом: Терион в официальном составе, который представлен Кристофером Йонссоном (лид– и ритм-гитары, лид вокал), Кристианом Ниеманном (лид– и ритм-гитары), Йоханом Ниеманном (бас), Сами Карппиненом (ударные), и хор, состоящий из шести человек обоих полов, – вот всё, что нужно для полнейшего счастья.Пятнадцать лет для группы – немалый срок, согласитесь, особенно если учесть, что команда эта не просто любима и почитаема в определённых кругах, но достаточно давно заслужила международное признание и репутацию "сложной" группы по стилистическим причинам. Подобное же издание концертника – потрясающий подарок всем почитателям и достойный венец творчества на данном этапе. Обычно заслуженные сборные музыкантов выпускают в свет разнообразные "ливы" лишь, когда осознают, что чего-то добились в музыкальной жизни, ведь так? В таком случае Кристофер Йонссон понял это как раз вовремя – после очередного полнометражного релиза, "Secret Of The Runes", самого проработанного с точки зрения хоровых, оперных и оркестровых элементов, из которых он собственно и складывается, "Live In Midgard" оказался в моей коллекции совсем не лишним.Диджи-пак, стилистически безупречно оформленный (кстати, буклет работы Томаса Эверхарда на "Secret Of The Runes" считаю до сих пор самым лучшим артистическим творением в музыке) и классно стилизованный (одна обложка чего стоит) под настроение и атмосферу, два диска общей протяжённостью более 115 минут, 24 четыре композиции, отражающие как в зеркале, хотя и не в хронологическом порядке, этапы развития коллектива, – меньше, чем на характеристику "фантастически" не тянет. Впрочем, сама подборка песен, записанных на концертах в Южной Америке и Европе, и некоторая порипанность старых композиций (например, "Symphony Of The Dead", один из лучших треков в жизни Териона, бесстыдно укоротили) может вызвать вопросы, но на ситуацию впрямую влияет несколько факторов, перечисленных самим Кристофером Йонссоном."Часть композиций мы вообще не сможем играть на концертах – например, "The Nifelheim" из-за сложности хоровой структуры. В студии ты пробуешь снова и снова до тех пор, пока не получится. Живьём шанс только один, но у нас есть выбор, какие вещи играть. Некоторые – сложнее, некоторые – проще. В идеале ни одну вещь Териона нельзя упрощать, но кое-что приходится, поскольку у нас не очень большой хор. Оркестровки мы записываем на многоканальную цифровую ленту, имеется в наличии и микшерный пульт, на котором всё выводится так, будто присутствует настоящий оркестр. Разумеется, это компромисс. Но если мы будем возить оркестр, выйдет слишком дорого".Впрочем, укороченные вещи – это детали, главное же заключается в том, что звук концертного альбома не мастерился в студии, как это принято у большинства команд (впрочем, зализанность звука, например, у Iron Maiden на "Rock In Rio" не мешает мне ценить этот "живой" релиз выше всех майдановских номерных творений вместе взятых), при этом как показывается практика звучит "Live In Midgard" так, как будто вышеупомянутая работа была проведена, т.е. очень чисто. Более того, хор, скроенный из небольшого контингента певцов, все свои партии исполняет чрезвычайно душевно и проникновенно, но, что не менее важно, практически идентично студийным записям.Гриф "Классика" на свежеиспечённом релизе, возможно, смотрится как-то странно, но совершенно заслуженно – "Live In Midgard" достоин называться классикой. Как, впрочем, и всё остальное, что делал, делает и будет делать Кристофер Йонссон. Более чем достойный подарок всем поклонникам самой аристократичной и интеллектуальной команды современной металсцены.(c) metallibrary

2004 - Lemuria

Список песен:01. (4:37) Typhon
02. (4:42) Uthark Runa
03. (3:20) Three Ships Of Berik (Part 1: Calling To Arms And Fighting The Battle)
04. (0:44) Three Ships Of Berik (Part 2: Victory!)
05. (4:15) Lemuria
06. (3:47) Quetzalcoatl
07. (4:58) The Dreams Of Swedenborg
08. (5:55) An Arrow From The Sun
09. (5:22) Abraxas
10. (4:39) Feuer Overtьre / Prometheus Entfesselt

Лог EAC

EAC extraction logfile from 5. June 2004, 11:54 for CD
Therion / LemuriaUsed drive : TOSHIBA CD-ROM XM-7002Bc Adapter: 1 ID: 0
Read mode : Secure with C2, accurate stream, NO disable cache
Combined read/write offset correction : 0
Overread into Lead-In and Lead-Out : NoUsed output format : C:\Musica\Exact Audio Copy\Mac\Mac.Exe (Monkey's Audio Lossless Encoder)
High Lossless CompressionOther options :
Fill up missing offset samples with silence : Yes
Delete leading and trailing silent blocks : No
Native Win32 interface for Win NT & 2000Range status and errors
Selected range
Filename C:\Traspas\Output\Therion - Lemuria [2004].wav Peak level 98.9 %
Range quality 100.0 %
CRC 97BB29B5
Copy OKNo errors occuredEnd of status report_______________________Оффсет откорректирован с помощью offix32 на +94, с совпадением по базе AccurateRip - confidence 24.

Лог AccurateRip

E:\Музыка\Therion\-Правильные>arcue.exe 1f.Cue
1f.Cue:Checking AccurateRip databaseTrack Ripping Status [Disc ID: 000ef25c-8509eb0a] 1 Accurately Ripped (confidence 24) [bf97f392]
2 Accurately Ripped (confidence 24) [9ba6bcee]
3 Accurately Ripped (confidence 24) [8a30ff8a]
4 Accurately Ripped (confidence 24) [b976c60f]
5 Accurately Ripped (confidence 24) [ab396efb]
6 Accurately Ripped (confidence 24) [e2ea3a1f]
7 Accurately Ripped (confidence 24) [b0f6c4ce]
8 Accurately Ripped (confidence 24) [ee9a8f04]
9 Accurately Ripped (confidence 24) [5b89f6a9]
10 Accurately Ripped (confidence 24) [6ea310f3]_______________________All Tracks Accurately Ripped.
Цитата:Кристофер Йонссон, адепт Ложи Раскрасневшегося Огнеплюя, а по совместительству бессмертный лидер культурного масонского учреждения, замаскированного под симфо-металлический коллектив из Швеции Therion, продолжает нести на интеллигентно-волосатых плечах увесистое бремя распространения тысячелетней мудрости среди нашей безграмотной металлической паствы, при этом ускоряя темпы и будто оправдывая поговорку "аппетит приходит во время еды". Если завести мощный мотор, то он будет пыхтеть, пока бензин не кончится. Движку Йонссона не грозит углеводородное голодание, поэтому у меня лично на душе скребут кошки. Притом так настойчиво, будто предвосхищая беду. Как говаривал великий комбинатор, "шансы всё увеличиваются, а бриллиантов всё нет". Точнее, они есть, но в принципе шансы на то, что next time их не будет, увеличиваются. Магические Ложи Красных Драконов и поиск нетленной истины изотерических знаний в сладковатом эфире иных Вселенных – это, конечно, неплохо. Равно как и Орден Скворцово-Степанова, утренняя молитва Богам в белых халатах, балахоны с длинными рукавами, омовение по расписанию и процедуры для души в комнате, обитой войлоком. Редкий интеллектуал от музыки Кристофер осознал главную ошибку "Secret Of The Runes": академизм – дело великое, но, понимаете ли, Therion – это симфо-металл, с ударением на последнем слове.Я не знаю, как отреагировала масса последователей Therion на обещание выпустить сразу две пластинки – лично меня это испугало. Даже такие умницы от музыки как Кристофер не могут при всём желании написать за такой короткий срок около ста минут выдающейся музыки – впрочем, в общем и целом результат порубил страхи в мелкий винегрет. Доселе каждая новая вещь шведов была непохожа на предыдущие, заключая в себе стилистическую изюминку от кутюр. На сей раз новые записи также сумели обрести лицо, только получилось оно слишком расплывчатым – без стержня, что называется. Йонссон пришёл в ресторан и настолько увлёкся разговором, что забыл поесть. "Sirius B" и "Lemuria", вышедшие в одно и тоже время, – попытка создать некое саммари 8-летнего симфо-металлического периода группы. Это вовсе не плач Ярославны – "Sirius B" во многом является прямым продолжением шедеврального "Theli" (1996). Продираясь сквозь заросли времени, естество "Theli" многое растеряло в пути, но обросло какими-то новыми элементами, сорванными мимолётом с пышных кустов других альбомов. На этих двух пластинках Йонссон как будто в беспамятстве свалил в кучу всё, что возникало в его творчестве за последние лет восемь – как безнадёжный студент на проваленном экзамене пытается собрать в кулачок все знания, дабы всплесками ритуального озарения поразить лекторов.Получилось, разумеется, очень красиво и эффектно, и тот, кто скажет, что это просто хорошо (вспомним Остапа Ибрагимовича ещё раз), пусть первым бросит в Йонссона камень. Но в погоне за собственной тенью – в любом случае "Sirius B" и "Lemuria" представляют собой попытку возвратиться к корням (что отчасти получилось, поскольку настолько близкого к "Theli" по духу альбома после "самого" не выходило) – маэстро во имя блестящей и монументальной симфоники припаял среднесложную риффовую структуру (начиная от старых и традиционных для группы риффов и заканчивая теми, что знакомы нам по Rage конца 80-х или Iced Earth), "усреднестатистичил" композиции и сделал их не слишком длинными, а консервативный академизм, апогеем которого стал размеренный и тяготеющий к чистой классике "Secret Of The Runes", упорхнул как здоровье в крупном мегаполисе. Кстати, о поиске корней – к примеру, прослушайте ещё две вариации на тему "Siren Of The Woods" – "The Wondrous World Of Punt" и "Lemuria". Крепкий хаос сделал обе пластинки здорово разнообразными – Йонссон гроулит, балалайка "поёт", полный "рамштайн" появляется на последней теме CD "Lemuria", Пётр Ваврженюк (старый соратник Йонссона, покинувший группу в 1997 году) снова светится на нескольких композициях, вызывая приступы ностальгии и т.д. Исключением можно назвать завал хоровых распевок, вызывающих местами ощущения строгого дежа-вю. Судя по всему, далеко не в последний раз. В технической сфере всё без каких-либо изъянов – пропагандистская рекламка на сайте издателя возвещает наличие 170 человек, певших и плясавших для альбомов. Но это скорее интересно для статистики – в результате же всё выглядит действительно настолько монументально, что дух захватывает. Оформление Томаса Эверхарда вызывает не меньше восторженных вздохов."Sirius B" и "Lemuria" достойны быть без пощады инкорпорированы в коллекцию любого последователя шведских музыкантов, ведь несмотря на несколько "но" проделан колоссальный объём работы и в результате получено НЕЧТО. К сожалению, Йонссону не хватило смелости сделать из двух отличных пластинок одну гениальную, увеличив продолжительность каждой из тем и обрубив всё лишнее. С другой стороны, "Lemuria" более консервативна, чем "Sirius B" опять же из-за наличия на последнем приличного количества hard'n'heavy риффов. В сухом остатке, как бы это по традиции смешно не звучало, очередное произведения искусства, рядом с названием которого данный ярлык смотрится гармонично и правдиво.(c) metallibrary

2004 - Sirius B

Список песен:01. (5:45) The Blood Of Kingu
02. (5:36) Son Of The Sun
03. (5:39) The Khlysti Evangelist
04. (4:02) Dark Venus Persephone
05. (3:28) Kali Yuga Part 1
06. (5:48) Kali Yuga Part II
07. (7:19) The Wondrous World Of Punt
08. (5:32) Melek Taus
09. (4:14) Call Of Dagon
10. (3:44) Sirius B
11. (5:57) Voyage Of Gurdjieff (The Fourth Way)

Лог EAC

EAC extraction logfile from 5. June 2004, 12:27 for CD
Therion / Sirius BUsed drive : TOSHIBA CD-ROM XM-7002Bc Adapter: 1 ID: 0
Read mode : Secure with C2, accurate stream, NO disable cache
Combined read/write offset correction : 0
Overread into Lead-In and Lead-Out : NoUsed output format : C:\Musica\Exact Audio Copy\Mac\Mac.Exe (Monkey's Audio Lossless Encoder)
High Lossless CompressionOther options :
Fill up missing offset samples with silence : Yes
Delete leading and trailing silent blocks : No
Native Win32 interface for Win NT & 2000Range status and errors
Selected range
Filename C:\Traspas\Output\Therion - Sirius B [2004].wav Peak level 98.9 %
Range quality 100.0 %
CRC 61FFF515
Copy OKNo errors occuredEnd of status report_______________________Оффсет откорректирован с помощью offix32 на +94, с совпадением по базе AccurateRip - confidence 23.

Лог AccurateRip

E:\Музыка\Therion>arcue.exe Therion - Sirius B [2004].flac.Cue
Therion - Sirius B [2004].flac.CueChecking AccurateRip databaseTrack Ripping Status [Disc ID: 0017c50d-940d5f0b] 1 Accurately Ripped (confidence 23) [f3a4a043]
2 Accurately Ripped (confidence 23) [89236a89]
3 Accurately Ripped (confidence 23) [4600d41e]
4 Accurately Ripped (confidence 23) [fa0cdee5]
5 Accurately Ripped (confidence 23) [a796e5da]
6 Accurately Ripped (confidence 22) [9aa1e8e3]
7 Accurately Ripped (confidence 23) [d8326e87]
8 Accurately Ripped (confidence 23) [e8590df4]
9 Accurately Ripped (confidence 23) [a5dafdc7]
10 Accurately Ripped (confidence 23) [7045221a]
11 Accurately Ripped (confidence 22) [cfe69bfc]_______________________All Tracks Accurately Ripped.
Цитата:Christofer Johnsson, организатор и идеолог Therion начал играть на гитаре в 15 лет, и уже 15 лет делает это в составе Therion (а ранее в составах Carbonized, Messiah и Liers In Wait). Начав с весьма традиционного дэтового звучания, этот коллектив быстро нашёл свой путь к сердцам миллионов слушателей. Уже альбом 'Lepaca Kliffoth' (1995) в значительной степени комбинировал эстетику двух, казалось бы, непримиримых культур - металлической и классической. Сногсшибательное постановочное видео "The Beauty In Black" овладело умами многих зрителей мейнстримовых каналов - MTV, VIVA... Оставалось сделать только один, последний шаг. И альбом 'Theli' (1996) произвёл эффект разорвавшейся бомбы, он навсегда останется единственным и непревзойдённым образцом стиля "sympho metal". C альбомом 'Deggial' (2000) они добились огромного успеха. Помимо попадания в немецкие чарты на 43-е место, он появился в таблицах популярности таких стран как Германия, Голландия, Финляндия, Польша. 'Secret Of The Runes' (2001) - следующий шаг, сделав который группа установила новые высокие стандарты в области слияния симфонической музыки и экстремального металла. Записи сразу двух новейших дисков произведены в студии Modern Art и помимо ударных, бас-гитары, гитар, балалаек, домбр и мандолин, здесь были записаны основные вокальные партии и большинство оперных голосов. Затем в Праге был записан громадный симфонический оркестр, партии некоторых клавишных, ещё несколько оперных вокалистов и молдавский хор из 32 человек. Звуки настоящего церковного органа записаны в одном из храмов Копенгагена, а в датской студии Sun Studio продюсер Lars Nissen (Tiamat) завершил записи работой над партиями хаммонд-органа и меллотрона, затем всё это было сведено вместе! Итог таков - 171 человек играли и пели для альбома свыше девяти месяцев, в результате 24 мая 2004 года в свет вышло сразу два диска - 'Lemuria' и 'Sirius B'. Therion своим новым релизом закрепили за собой титул отцов стиля "sympho metal", работа такого масштаба оказалась по плечу только могучим шведам. Здесь слушатель найдёт и типично "метал" - композиции ("Typhon", "Blood Of Kingu", "Kali Yuga' Pt. 1 и 2"), и эпические вещи на стыке типичного саундтрека и традиционной классики - ("The Three Ships Of Berik Pt. 1 и 2", "Call Of Dagon"), а также массу песен, содержащих совершенно неописуемые комбинации разных стилей.(c) Пресс-релиз

2006 - Celebrators Of Becoming

Список песен:CD1:01. (0:28) Intro
02. (5:27) Blood of Kingu
03. (5:33) Uthark Runa
04. (3:45) Seven Secrets of the Sphinx
05. (4:33) Asgеrd
06. (5:44) Son of the Sun
07. (5:38) Invocation of Naamah
08. (4:38) Typhon
09. (6:44) Draconian Trilogy
10. (4:11) Flesh of the Gods
11. (3:33) Schwarzalbenheim
12. (5:13) GinnungagapCD2:01. (6:34) In Remembrance
02. (4:02) Wild Hunt
03. (5:23) The Invincible
04. (4:00) Melez
05. (6:53) Rise of Sodom and Gomorrah
06. (4:53) The Khlysti Evangelist
07. (9:59) Siren of the Woods
08. (3:39) Quetzalcoatl
09. (4:47) Wine of Aluqah
10. (5:20) Cults of the Shadow
11. (7:10) To Mega Therion
12. (5:15) Iron Fist

Лог EAC. CD1

EAC extraction logfile from 22. October 2006, 11:24 for CD
Therion / Celebrators of Becoming (CD1)Used drive : LITE-ON DVDRW SOHW-832S Adapter: 0 ID: 0
Read mode : Secure with NO C2, accurate stream, disable cache
Read offset correction : 12
Overread into Lead-In and Lead-Out : NoUsed output format : C:\Archivos de programa\Exact Audio Copy\flac.exe (User Defined Encoder)
32 kBit/s
Additional command line options : -6 -V -T "artist=%a" -T "title=%t" -T "album=%g" -T "date=%y" -T "tracknumber=%n" -T "gnre=%m" -T "comment=EAC 0.9beta4/FLAC 1.1.0 q6" %sOther options :
Fill up missing offset samples with silence : Yes
Delete leading and trailing silent blocks : No
Installed external ASPI interfaceRange status and errors
Selected range
Filename F:\THERION.[2006].[2CD].Celebrators.Of.Becoming.[EAC-FLAC].By.Luchadorconpinkita.[MeTaLMaDNess.TeaM]\CDImage.flac.wav Peak level 100.0 %
Range quality 99.9 %
CRC 5D4C1CBE
Copy OKNo errors occuredEnd of status report

Лог AccurateRip.CD1

E:\Музыка\Therion>arcue.exe CD1.cue
CD1.cue:Checking AccurateRip databaseTrack Ripping Status [Disc ID: 00175a07-960cff0c] 1 Accurately Ripped (confidence 6) [079001ee]
2 Accurately Ripped (confidence 6) [68f64b71]
3 Accurately Ripped (confidence 6) [c1c7673a]
4 Accurately Ripped (confidence 6) [efbb1e7b]
5 Accurately Ripped (confidence 6) [af51685b]
6 Accurately Ripped (confidence 6) [dc9f5a93]
7 Accurately Ripped (confidence 6) [57accdb9]
8 Accurately Ripped (confidence 6) [8551fb59]
9 Accurately Ripped (confidence 5) [d7c42c3e]
10 Accurately Ripped (confidence 6) [9b4f8200]
11 Accurately Ripped (confidence 6) [ace9962c]
12 Accurately Ripped (confidence 6) [b1d26aaa]_______________________All Tracks Accurately Ripped.

Лог EAC. CD2

EAC extraction logfile from 29. October 2006, 23:59 for CD
Therion / Celebrators of Becoming (CD2)Used drive : LITE-ON DVDRW SOHW-832S Adapter: 0 ID: 0
Read mode : Secure with NO C2, accurate stream, disable cache
Read offset correction : 12
Overread into Lead-In and Lead-Out : NoUsed output format : C:\Archivos de programa\Exact Audio Copy\flac.exe (User Defined Encoder)
32 kBit/s
Additional command line options : -6 -V -T "artist=%a" -T "title=%t" -T "album=%g" -T "date=%y" -T "tracknumber=%n" -T "gnre=%m" -T "comment=EAC 0.9beta4/FLAC 1.1.0 q6" %sOther options :
Fill up missing offset samples with silence : Yes
Delete leading and trailing silent blocks : No
Installed external ASPI interfaceRange status and errors
Selected range
Filename C:\Archivos de programa\eMule\Incoming\THERION.[2006].[2CD].Celebrators.Of.Becoming.(Live.In.Mexico).[EAC-FLAC].By.Luchadorconpinkita.[MeTaLMaDNess.TeaM]\CD2\CDImage.flac.wav Peak level 99.3 %
Range quality 100.0 %
CRC 7190DB47
Copy OKNo errors occuredEnd of status report

Лог AccurateRip.CD2

E:\Музыка\Therion>arcue.exe CD2.cue
CD2.cue:Checking AccurateRip databaseTrack Ripping Status [Disc ID: 001dde0c-8a0fe80c] 1 Accurately Ripped (confidence 6) [86d20a50]
2 Accurately Ripped (confidence 6) [bd9f363d]
3 Accurately Ripped (confidence 6) [016173f5]
4 Accurately Ripped (confidence 6) [d5b35915]
5 Accurately Ripped (confidence 6) [82ed6a1d]
6 Accurately Ripped (confidence 6) [dc5d8e09]
7 Accurately Ripped (confidence 6) [f72c7681]
8 Accurately Ripped (confidence 6) [87eb4cdd]
9 Accurately Ripped (confidence 6) [f7834643]
10 Accurately Ripped (confidence 6) [d6e9bed1]
11 Accurately Ripped (confidence 6) [85266dad]
12 Accurately Ripped (confidence 6) [918c8777]_______________________All Tracks Accurately Ripped.
Цитата:5 мая 2006 года вышел в свет новейший релиз шведов, шестидисковый аудио-видео архив 'Celebrators Of Becoming'. На российский рынок вначале поступает видео-часть компиляции. Теперь и Вы станете свидетелями того, как и кем создавалась легенда - на четырёх DVD содержится более десяти часов уникального видеоматериала, почти сотня концертных номеров и видеоклипов, отражающих все периоды творчества шведов... Первый диск - концерт в Мехико в 2004 году; второй, документальный DVD, содержит саундчеки, ипровизированные хоры и барабанные соло, съемки за кулисами, записи повседневной жизни музыкантов в турне и более 30 различных композиций, снятых на концертах в 16 странах Европы, Азии, Северной и Южной Америки. Среди них есть также Российский Государственный Гимн, а также кавера, сделанные совместно с Tristania Trail Of Tears. Третий DVD это выступление группы на Wacken 2001 и семь видео-клипов, снятых с 1992 по 2001 годы. Этот диск также содержит документальный фильм 'The Golden Embrace' и репортажи из студии о записи альбомов 'Lemuria' и 'Sirius B'. Последний, четвертый диск - путешествие в историю группы, которое начинается в1989 году и заканчивается в 2001 году. 20-ти страничный буклет оформил Thomas Ewerhard (Edguy, Dimmu Borgir, Hypocrisy, Kataklysm Sinner, Sinister). Диски упакованы в роскошный подарочный дигипак и слип-кейс.(c) Пресс-релиз

2007 - Gothic Kabbalah

Список песен:CD1:01. (05:38) Der Mitternachtslowe
02. (04:34) Gothic Kabbalah
03. (04:54) The Perennial Sophia
04. (05:02) Wisdom and the Cage
05. (04:48) Son of the Staves of Time
06. (04:23) Tuna 1613
07. (05:11) Trul
08. (03:55) Close up the StreamsCD2:01. (05:52) The Wand of Abaris
02. (05:21) Three Treasures
03. (03:55) Path to Arcady
04. (06:18) T.O.F. - The Trinity
05. (05:21) Chain of Minerva
06. (04:46) The Falling Stone
07. (13:37) Adulruna Rediviva

Лог EAC. CD1

EAC extraction logfile from 12. January 2007, 13:18 for CD
Therion / Gothic Kabbalah (Disc 1)Used drive : HL-DT-STDVDRAM GSA-4040B Adapter: 0 ID: 1
Read mode : Secure with NO C2, accurate stream, disable cache
Read offset correction : 667
Overread into Lead-In and Lead-Out : NoUsed output format : Internal WAV Routines
44.100 Hz; 16 Bit; StereoOther options :
Fill up missing offset samples with silence : Yes
Delete leading and trailing silent blocks : No
Installed external ASPI interfaceRange status and errors
Selected range
Filename H:\- ARCHIVIO ALBUMS IN MY COLLECTION\Nuova cartella (5)\Therion - Gothic Kabbalah (Disc 1).wav Peak level 99.9 %
Range quality 99.9 %
CRC 00659BCF
Copy OKNo errors occuredEnd of status report

Лог AccurateRip.CD1

E:\Музыка\Therion>arcue.exe Therion - Gothic Kabbalah (Disc 1).cue
Therion - Gothic Kabbalah (Disc 1).cue:Checking AccurateRip databaseTrack Ripping Status [Disc ID: 000c3e54-59090208] 1 Accurately Ripped (confidence 42) [d94321e5]
2 Accurately Ripped (confidence 41) [5336daca]
3 Accurately Ripped (confidence 40) [24480b28]
4 Accurately Ripped (confidence 41) [3cb20383]
5 Accurately Ripped (confidence 41) [0f05f5fa]
6 Accurately Ripped (confidence 40) [dad5c866]
7 Accurately Ripped (confidence 41) [4fb20a60]
8 Accurately Ripped (confidence 39) [59f930c5]_______________________All Tracks Accurately Ripped.

Лог EAC. CD2

EAC extraction logfile from 12. January 2007, 13:45 for CD
Therion / Gothic Kabbalah (Disc 2)Used drive : HL-DT-STDVDRAM GSA-4040B Adapter: 0 ID: 1
Read mode : Secure with NO C2, accurate stream, disable cache
Read offset correction : 667
Overread into Lead-In and Lead-Out : NoUsed output format : Internal WAV Routines
44.100 Hz; 16 Bit; StereoOther options :
Fill up missing offset samples with silence : Yes
Delete leading and trailing silent blocks : No
Installed external ASPI interfaceRange status and errors
Selected range
Filename H:\- ARCHIVIO ALBUMS IN MY COLLECTION\Nuova cartella (5)\Therion - Gothic Kabbalah (Disc 2).wav Peak level 99.9 %
Range quality 99.9 %
CRC E463ECCA
Copy OKNo errors occuredEnd of status report

Лог AccurateRip.CD2

E:\Музыка\Therion>arcue.exe Therion - Gothic Kabbalah (Disc 2).cue
Therion - Gothic Kabbalah (Disc 2).cueChecking AccurateRip databaseTrack Ripping Status [Disc ID: 000ac9b0-670a9607] 1 Accurately Ripped (confidence 41) [42f2bd5e]
2 Accurately Ripped (confidence 40) [dcfb17e2]
3 Accurately Ripped (confidence 40) [fe57acb3]
4 Accurately Ripped (confidence 40) [328c43de]
5 Accurately Ripped (confidence 40) [a4afa4f6]
6 Accurately Ripped (confidence 40) [281a439c]
7 Accurately Ripped (confidence 40) [00a7554c]_______________________All Tracks Accurately Ripped.
Цитата:Музыкальный мир за последние пару лет лишился одного из важнейших своих кирпичиков – элемента неожиданности. Мы всё чаще теряем группы, чем их находим. Всё больше критикуем, чем поём дифирамбы. Процесс совершенно естественный по мере углубления и усложнения стилистических связей внутри индустрии, но смириться с таким положением вещей трудно. Therion вряд ли могли удивить (так во всяком случае казалось) – особенно если брать в расчет последние две качественные, но усредненные по сути пластинки "Lemuria" и "Sirius B" (обе – 2004), на которых великая формация окончательно потеряла динамику, застыв на постаменте имени самой себя. То, чего Кристофер Йонссон и его дружина сумели добиться на "Gothic Kabbalah", вызывает уважение и нескрываемый восторг. Всё-таки приятно, когда вера во что-то светлое возвращается, пусть и после периода разочарований.Новая пластинка кажется монолитным и самодостаточным творением. И если предыдущий сдвоенный релиз напоминал первый симфо-металлический опус Therion "Theli" (1996) в плане стилистики, то "Gothic Kabbalah" не уступает своему прародителю в потрясающе гармоничном подборе элементов. До сей поры казалось, что все мелодические ходы, находящиеся в арсенале группы, уже учтены и описаны. Причина нынешней резкой перемены, как ни странно, лежит на поверхности. Из пятнадцати тем двухдискового релиза мастермайнд коллектива отметился авторством лишь (!!!) на пяти. Всё остальное плоды творчества его коллег, включая не состоящих официально в Therion Матса Левена (At Vance) и Сноуи Шоу (Mercyful Fate, King Diamond). Серьёзно поиздержавшись в плане идей, Йонссон разумно отошёл в сторону. Результат налицо, пример для подражания."Gothic Kabbalah" состоит из запоминающихся мелодий, великолепного состава исполнителей и замечательных ритмических структур. Это, если хотите, свежий взгляд на знакомые вещи. Множество критических замечаний из-за потери всех традиционных хоралов и заточенности под классическую музыку вагнеровского разлива понять трудно. Совершенно очевидно, лица группа не потеряла, но с симфоническими элементами у неё за последние несколько лет случился явный перебор. В "Готической каббале" шведы не стали строить очередную вавилонскую башню из оркестров, а обошлись малой кровью. Оркестровые аранжировки стали гораздо более акцентированными – они не расплываются мыслью по древу, вылезая из под каждой кочки, а подаются очень дозировано. Не пулемётная очередь, а снайперский выстрел.Фактически каждый трек обладает своим неповторимым характером. На пластинке много жизни, движения, совсем нет статики – во многом благодаря новой, зачастую рваной ритмике. До сих пор было больно смотреть на этот музыкальный музей мадам Тюссо, где персонажи выглядят как настоящие, но в них нет жизни. Therion по-прежнему звучит пафосно, но уже не напыщенно. Апогей развития – четырнадцатиминутная прогрессивная вещь "Adulruna Redibiba", замечательно сводящая все находки скандинавов в единое целое. Изящной перспективе немало способствует и тот факт, что звуком занимался не один режиссер, а группа целиком совместно с Левеном и Санкеном Сандквистом (отвечал за ударные). Therion не выглядит так же пластиково и салонно, как несколько лет назад.В плане лирики изменений не произошло. О чём поют на "Gothic Kabbalah", без соответствующей изотерической подготовки понять невозможно. Ответственен за это "безобразие" по-прежнему оккультист со стажем, мессия магической ложи Dragon Rouge и заслуженный каббалист Швеции Томас Карлссон (Малыш тут не причем). Честь ему и хвала, но нам от это не легче. Впрочем, лирические экзерсисы непонятного содержания вполне подходят группе – по духу.В общем и целом, диск "Gothic Kabbalah" немало разделил публику. Для Therion скорее необычное явление. С другой стороны, не рождающие истину споры полезны. Если бы новая пластинка была пустышкой, о ней бы никто не говорил. А так для многих спорный, но шедевр.(c) metallibrary

2008 - Live Gothic

Список песен:CD1:01. (06:19) Der Mitternachtslowe
02. (03:56) Schwarzalbenheim
03. (05:57) Blood Of Kingu
04. (04:09) Falling Stone
05. (05:47) Arrow From The Sun
06. (05:03) Deggial
07. (05:12) Wine Of Aluqah
08. (04:36) Perennial Sophia
09. (05:43) Son Of The Sun
10. (05:07) Son of the Staves of Time
11. (05:17) Birth Of Venus Illegitima
12. (04:18) Tuna 1963
13. (04:05) Drum Solo
14. (02:47) MuspelheimCD2:01. (06:47) Rise Of Sodom And Gomorrah
02. (05:49) Ginnungagap
03. (04:17) Grand Finale
04. (04:16) Lemuria
05. (05:49) The Wand of Abaris
06. (07:43) Nightside Of Eden
07. (10:16) To Mega Therion
08. (05:49) Thor (The Powerhead)

Лог EAC. CD1

Отчёт EAC об извлечении, выполненном 23. августа 2008, 2:00 для диска:
Therion / Live Gothic (Disc 1)Дисковод: PLEXTOR DVDR PX-760A Adapter: 0 ID: 0
Режим чтения: Достоверный (C2: нет, Точный поток: да, Отключение кэша: да)
Коррекция смещения при чтении: 30
Способность читать области Lead-in и Lead-out : НетВыходной формат: C:\Program Files\Monkey's Audio\MAC.exe (Monkey's Audio (без потерь))
High Lossless CompressionДругие параметры:
Заполнение пропущенных сэмплов тишиной : Да
Удаление блоков с тишиной в начале и конце : Нет
Установленный внешний ASPI-интерфейсХарактеристики диапазона извлечения и сообщения об ошибках
Выбранный диапазон
Имя файла D:\MUSIC\Therion - Live Gothic (Disc 1).wav Пиковый уровень 98.9 %
Качество диапазона 100.0 %
CRC 8FAFCA65
Копирование... OKОшибок не произошлоКонец отчёта

Лог EAC. CD2

Отчёт EAC об извлечении, выполненном 23. августа 2008, 1:16 для диска:
Therion / Live Gothic (disc 2)Дисковод: PLEXTOR DVDR PX-760A Adapter: 0 ID: 0
Режим чтения: Достоверный (C2: нет, Точный поток: да, Отключение кэша: да)
Коррекция смещения при чтении: 30
Способность читать области Lead-in и Lead-out : НетВыходной формат: C:\Program Files\Monkey's Audio\MAC.exe (Monkey's Audio (без потерь))
High Lossless CompressionДругие параметры:
Заполнение пропущенных сэмплов тишиной : Да
Удаление блоков с тишиной в начале и конце : Нет
Установленный внешний ASPI-интерфейсХарактеристики диапазона извлечения и сообщения об ошибках
Выбранный диапазон
Имя файла D:\MUSIC\Therion - Live Gothic (disc 2).wav Пиковый уровень 98.8 %
Качество диапазона 100.0 %
CRC 11FABD39
Копирование... OKОшибок не произошлоКонец отчёта

2009 - The Miskolc Experience

Список песен:CD 1. Classical Adventures:01. (10:35) Clavicula Nox
02. (02:04) Dvorak - Excerpt from Symphony no. 9
03. (02:46) Verdi - Vedi! le fosche notturne spotigle from Il Trovatore
04. (01:59) Mozart - 'Dies Irae' from Reqiuem
05. (02:15) Saint-Saens- Excerpt from Symphony No. 3
06. (07:10) Wagner - 'Notung! Notung! Niedliches Schwert!' from The Ring
07. (03:12) Wagner - Excerpt from the Overture from Rienzi
08. (07:18) Wagner - Second part of 'Der Tag ist da' from Rienzzi
09. (01:48) Wagner - First part of 'Herbei! Herbei!' from RienziCD 2. Therion Songs:10. (05:54) Blood Of Kingu
11. (03:52) Sirius B
12. (04:22) Lemuria
13. (07:22) Eternal Return
14. (08:38) Draconian Trilogy
15. (05:29) Schwartsalbenheim
16. (09:44) Via Nocturna
17. (06:55) The Rise Of Sodom And Gomorrah
18. (04:24) Grand Finale

Лог EAC. CD1

Exact Audio Copy V0.99 prebeta 5 from 4. May 2009EAC extraction logfile from 8. June 2009, 12:30Therion / The Miskolc Experience (CD1)Used drive : HL-DT-STDVD-RAM GH15L Adapter: 0 ID: 1Read mode : SecureUtilize accurate stream : YesDefeat audio cache : YesMake use of C2 pointers : NoRead offset correction : 667Overread into Lead-In and Lead-Out : NoFill up missing offset samples with silence : YesDelete leading and trailing silent blocks : NoNull samples used in CRC calculations : NoUsed interface : Native Win32 interface for Win NT & 2000Used output format : Monkey's Audio Lossless EncoderSelected bitrate : High Lossless CompressionQuality : HighAdd ID3 tag : YesCommand line compressor : C:\Program Files\Exact Audio Copy\MAC.EXETOC of the extracted CD Track | Start | Length | Start sector | End sector --------------------------------------------------------- 1 | 0:00.00 | 10:34.63 | 0 | 47612 2 | 10:34.63 | 2:04.12 | 47613 | 56924 3 | 12:39.00 | 2:45.69 | 56925 | 69368 4 | 15:24.69 | 1:59.03 | 69369 | 78296 5 | 17:23.72 | 2:14.42 | 78297 | 88388 6 | 19:38.39 | 7:10.12 | 88389 | 120650 7 | 26:48.51 | 3:12.03 | 120651 | 135053 8 | 30:00.54 | 7:17.42 | 135054 | 167870 9 | 37:18.21 | 1:47.72 | 167871 | 175967Range status and errorsSelected range Filename C:\Documents and Settings\Administrator\Pulpit\THERION [2009] [CD1] The Miskolc Experience\Therion - The Miskolc Experience.wav Peak level 100.0 % Range quality 100.0 % Copy CRC 6BFDA6EE Copy OKNo errors occurredAccurateRip summaryTrack 1 not present in databaseTrack 2 not present in databaseTrack 3 not present in databaseTrack 4 not present in databaseTrack 5 not present in databaseTrack 6 not present in databaseTrack 7 not present in databaseTrack 8 not present in databaseTrack 9 not present in databaseNone of the tracks are present in the AccurateRip databaseEnd of status report

Лог EAC. CD2

Exact Audio Copy V0.99 prebeta 5 from 4. May 2009EAC extraction logfile from 8. June 2009, 12:45Therion / The Miskolc Experience (CD2)Used drive : HL-DT-STDVD-RAM GH15L Adapter: 0 ID: 1Read mode : SecureUtilize accurate stream : YesDefeat audio cache : YesMake use of C2 pointers : NoRead offset correction : 667Overread into Lead-In and Lead-Out : NoFill up missing offset samples with silence : YesDelete leading and trailing silent blocks : NoNull samples used in CRC calculations : NoUsed interface : Native Win32 interface for Win NT & 2000Used output format : Monkey's Audio Lossless EncoderSelected bitrate : High Lossless CompressionQuality : HighAdd ID3 tag : YesCommand line compressor : C:\Program Files\Exact Audio Copy\MAC.EXETOC of the extracted CD Track | Start | Length | Start sector | End sector --------------------------------------------------------- 1 | 0:00.00 | 5:53.45 | 0 | 26519 2 | 5:53.45 | 3:51.60 | 26520 | 43904 3 | 9:45.30 | 4:22.06 | 43905 | 63560 4 | 14:07.36 | 7:21.66 | 63561 | 96701 5 | 21:29.27 | 8:37.45 | 96702 | 135521 6 | 30:06.72 | 5:28.69 | 135522 | 160190 7 | 35:35.66 | 9:43.69 | 160191 | 203984 8 | 45:19.60 | 6:54.57 | 203985 | 235091 9 | 52:14.42 | 4:23.42 | 235092 | 254858Range status and errorsSelected range Filename C:\Documents and Settings\Administrator\Pulpit\THERION [2009] [CD2] The Miskolc Experience\Therion - The Miskolc Experience (CD2).wav Peak level 100.0 % Range quality 100.0 % Copy CRC 8A87F2B9 Copy OKNo errors occurredAccurateRip summaryTrack 1 not present in databaseTrack 2 not present in databaseTrack 3 not present in databaseTrack 4 not present in databaseTrack 5 not present in databaseTrack 6 not present in databaseTrack 7 not present in databaseTrack 8 not present in databaseTrack 9 not present in databaseNone of the tracks are present in the AccurateRip databaseEnd of status report
Цитата:Therion - шведская музыкальная группа, основанная в 1987 году Кристофером Йонсеном и играющая в стиле симфоник-метал. Therion считаются одними из основателей и ключевых исполнителей симфо-метала. Слово Therion (θηρίον) происходит из греческого языка, и означает «зверь», «чудовище».С первых альбомов и на протяжении всей истории основной тематикой текстов группы остается мифология народов мира, мистические и религиозные учения древности. Среди постоянных тем - верования древнего Египта, Скандинавии, Греции, Библейская мифология, Атлантида, еретические учения, такие как Хлысты. Концептуальный альбом 2001 года "Secret of the Runes" посвящен девяти мирам в Скандинавской мифологии.Автором значительной части текстов группы является Томас Карлсон, глава общества мистиков под названием «Орден Красного Дракона» (Order Dragon Rouge). Кристофер Йонсен также является членом этого Ордена.Концертные шоу Therion представляют собой театрализованные представления, которые иллюстрируют содержание песен. На сцене воздвигаются декорации средневековых замков, клеток, факелов, вокалисты выступают в сценических костюмах, стилизованных под средневековье.Единственным постоянным участником группы является Кристофер Йонсен. Официальный состав Therion часто расходится с реальным участием музыкантов в выступлениях: так, большую часть истории группа «не имела» вокалиста. Среди постоянных сессионных вокалисток Therion наиболее известна Сара Джезебель Дева, позднее сотрудничавшая с Cradle of Filth и основавшая группу Angtoria. Вокалист и ударник Пётр Вавженюк также долгое время был постоянным участником группы. В дополнение к постоянному составу Therion регулярно привлекают для записи своих альбомов оркестры и хоры.

Информация о раздаче

Все рипы образом. Все рипы присутсвующие в базе прошли проверку AccurateRip. Там где это было необходимо проводилась корректировка оффсетов с помощью offix32. Некоторые альбомы представлены двумя рипами, такие как: "Beyond Sanctorum" - оригинальная версия и ремастер с бонусами из "The Early Chapters of Revelation" (2000)
Vovin - оригинальная и версия русского издания с бонус-треком "The King"
Secret of the Runes - оригинальная и версия с двумя бонус-треками.

[erzsebet.org].t23799.torrent 
Торрент: Зарегистрирован [ 2018-11-08 11:54 ]

Скачать .torrent

Скачать

68 KB

Статус: проверено
Скачан: 0 раз
Размер: 9,89 GB
Поблагодарили: 0  Спасибо
terms.php
[Профиль]  [ЛС] 
Показать сообщения:    
Ответить на тему

Текущее время: 16-Ноя 20:03

Часовой пояс: UTC + 3



Вы не можете начинать темы
Вы не можете отвечать на сообщения
Вы не можете редактировать свои сообщения
Вы не можете удалять свои сообщения
Вы не можете голосовать в опросах
Вы не можете прикреплять файлы к сообщениям
Вы можете скачивать файлы