(Death/Doom Metal) Doomed - Discography (2012-2018) 7CD, FLAC (image+.cue), lossless

Ответить на тему
Статистика раздачи
Размер:  2,68 GB   |    Зарегистрирован:  8 дней   |    Скачан:  0 раз

Полного источника не было: 7 дней

Личеров:  20  [  0 KB/s  ]   Подробная статистика пиров
 
     
 
 
 
Автор Сообщение

erzsebet ®

Стаж: 1 год 7 месяцев

Сообщений: 21185

Откуда: с небес

Создавать темы 08-Ноя-2018 18:57  |  Сменить автора

[Цитировать] 

Doomed - DiscographyСтрана: Germany
Жанр: Death/Doom Metal
Аудиокодек: FLAC (*.flac)
Тип рипа: image+.cue
Битрейт аудио: lossless
Сканы: да-

2012 - The Ancient Path

Треклист:
01. Sun Eater (7:05)
02. Collapsing Guts (7:06)
03. She's Calling Me (9:16)
04. Caesar's Whore (8:05)
05. Death is No Respecter (9:19)
06. My Love is Dead (11:08)
total time 0:52:00
Доп. информация:
Self-released [N/A]
Original CD-R + booklet in plastic sleeve

Отчёт ЕАС

Exact Audio Copy V1.0 beta 3 from 29. August 2011EAC extraction logfile from 23. December 2014, 5:22Doomed / The Ancient PathUsed drive : ASUS DRW-1612BL Adapter: 2 ID: 0Read mode : SecureUtilize accurate stream : YesDefeat audio cache : YesMake use of C2 pointers : NoRead offset correction : 6Overread into Lead-In and Lead-Out : NoFill up missing offset samples with silence : YesDelete leading and trailing silent blocks : NoNull samples used in CRC calculations : YesUsed interface : Installed external ASPI interfaceUsed output format : User Defined EncoderSelected bitrate : 128 kBit/sQuality : HighAdd ID3 tag : NoCommand line compressor : C:\Program Files\EAC\Exact Audio Copy\Flac\flac.exeAdditional command line options : -V -8 -T "Date=%year%" -T "Genre=%genre%" %source%TOC of the extracted CD Track | Start | Length | Start sector | End sector --------------------------------------------------------- 1 | 0:00.00 | 7:05.09 | 0 | 31883 2 | 7:05.09 | 7:06.29 | 31884 | 63862 3 | 14:11.38 | 9:16.31 | 63863 | 105593 4 | 23:27.69 | 8:04.57 | 105594 | 141950 5 | 31:32.51 | 9:18.49 | 141951 | 183849 6 | 40:51.25 | 11:08.13 | 183850 | 233962Range status and errorsSelected range Filename C:\darkbrides\Doomed - The Ancient Path.wav Peak level 100.0 % Extraction speed 7.6 X Range quality 99.9 % Test CRC 7C19BE78 Copy CRC 7C19BE78 Copy OKNo errors occurredAccurateRip summaryTrack 1 accurately ripped (confidence 2) [BD35E86F] (AR v2)Track 2 accurately ripped (confidence 2) [F6A0C616] (AR v2)Track 3 accurately ripped (confidence 2) [67D27E45] (AR v2)Track 4 accurately ripped (confidence 2) [5AE85440] (AR v2)Track 5 accurately ripped (confidence 2) [613A2787] (AR v2)Track 6 accurately ripped (confidence 2) [C476BE36] (AR v2)All tracks accurately rippedEnd of status report==== Log checksum DA717170DA8C3E671775D37C3E25CE38777184B33098AC60C662408E39A8CE14 ====

2012/2013 - The Ancient Path (Re-release)

Треклист:
01. Sun Eater (7:04)
02. Collapsing Guts (7:04)
03. She's Calling Me (9:12)
04. Caesar's Whore (8:06)
05. Death is No Respecter (9:19)
06. My Love is Dead (11:10)
07. The Same Blood (5:53)*
total time 0:57:49
Доп. информация:
Deathcult Productions [DCP002]
Handnumbered to 1000 copies

Info

*- Bonus Track

Отчёт ЕАС

Exact Audio Copy V1.0 beta 3 from 29. August 2011EAC extraction logfile from 23. December 2014, 6:21Doomed / The Ancient Path (Re-release)Used drive : ASUS DRW-1612BL Adapter: 2 ID: 0Read mode : SecureUtilize accurate stream : YesDefeat audio cache : YesMake use of C2 pointers : NoRead offset correction : 6Overread into Lead-In and Lead-Out : NoFill up missing offset samples with silence : YesDelete leading and trailing silent blocks : NoNull samples used in CRC calculations : YesUsed interface : Installed external ASPI interfaceUsed output format : User Defined EncoderSelected bitrate : 128 kBit/sQuality : HighAdd ID3 tag : NoCommand line compressor : C:\Program Files\EAC\Exact Audio Copy\Flac\flac.exeAdditional command line options : -V -8 -T "Date=%year%" -T "Genre=%genre%" %source%TOC of the extracted CD Track | Start | Length | Start sector | End sector --------------------------------------------------------- 1 | 0:00.00 | 7:03.43 | 0 | 31767 2 | 7:03.43 | 7:04.36 | 31768 | 63603 3 | 14:08.04 | 9:12.23 | 63604 | 105026 4 | 23:20.27 | 8:05.74 | 105027 | 141475 5 | 31:26.26 | 9:18.64 | 141476 | 183389 6 | 40:45.15 | 11:10.36 | 183390 | 233675 7 | 51:55.51 | 5:53.34 | 233676 | 260184Range status and errorsSelected range Filename C:\darkbrides\Doomed - The Ancient Path (Re-release).wav Peak level 98.8 % Extraction speed 9.0 X Range quality 100.0 % Test CRC 0CEB76DC Copy CRC 0CEB76DC Copy OKNo errors occurredAccurateRip summaryTrack 1 accurately ripped (confidence 2) [045ABCE5] (AR v2)Track 2 accurately ripped (confidence 2) [5A7E390D] (AR v2)Track 3 accurately ripped (confidence 2) [E32180E5] (AR v2)Track 4 accurately ripped (confidence 2) [62690626] (AR v2)Track 5 accurately ripped (confidence 2) [841A9062] (AR v2)Track 6 accurately ripped (confidence 2) [3C4C8288] (AR v2)Track 7 accurately ripped (confidence 2) [5B0E7379] (AR v2)All tracks accurately rippedEnd of status report==== Log checksum 2072A8F83F9660E5DD1D8328AEDAB1968A0A65117D465F16FF5C044198AA81FC ====

2012 - In My Own Abyss

Треклист:
01. Downward (7:30)
02. Alone We Stand (7:16)
03. The Ancient Path (9:07)
04. A Wall Of Your Thrones (7:33)
05. Restless (6:46)
06. Leave (9:09)
07. Ах ты, степь широкая (17:08)
total time 1:04:29
Доп. информация
:
Solitude Productions [SP. 068-12]

Отчёт ЕАС

Exact Audio Copy V1.0 beta 3 from 29. August 2011EAC extraction logfile from 23. December 2014, 7:02Doomed / In My Own AbyssUsed drive : ASUS DRW-1612BL Adapter: 2 ID: 0Read mode : SecureUtilize accurate stream : YesDefeat audio cache : YesMake use of C2 pointers : NoRead offset correction : 6Overread into Lead-In and Lead-Out : NoFill up missing offset samples with silence : YesDelete leading and trailing silent blocks : NoNull samples used in CRC calculations : YesUsed interface : Installed external ASPI interfaceUsed output format : User Defined EncoderSelected bitrate : 128 kBit/sQuality : HighAdd ID3 tag : NoCommand line compressor : C:\Program Files\EAC\Exact Audio Copy\Flac\flac.exeAdditional command line options : -V -8 -T "Date=%year%" -T "Genre=%genre%" %source%TOC of the extracted CD Track | Start | Length | Start sector | End sector --------------------------------------------------------- 1 | 0:00.00 | 7:30.09 | 0 | 33758 2 | 7:30.09 | 7:15.69 | 33759 | 66452 3 | 14:46.03 | 9:06.57 | 66453 | 107459 4 | 23:52.60 | 7:32.61 | 107460 | 141420 5 | 31:25.46 | 6:45.48 | 141421 | 171843 6 | 38:11.19 | 9:09.31 | 171844 | 213049 7 | 47:20.50 | 17:08.28 | 213050 | 290177Range status and errorsSelected range Filename C:\darkbrides\Doomed - In My Own Abyss.wav Peak level 100.0 % Extraction speed 9.3 X Range quality 100.0 % Test CRC 75F30576 Copy CRC 75F30576 Copy OKNo errors occurredAccurateRip summaryTrack 1 accurately ripped (confidence 5) [F7D46263] (AR v2)Track 2 accurately ripped (confidence 5) [1B7458E8] (AR v2)Track 3 accurately ripped (confidence 5) [CBB743E5] (AR v2)Track 4 accurately ripped (confidence 5) [00859FDF] (AR v2)Track 5 accurately ripped (confidence 5) [EA7761B1] (AR v2)Track 6 accurately ripped (confidence 5) [A7DD7240] (AR v2)Track 7 accurately ripped (confidence 5) [7135BE86] (AR v2)All tracks accurately rippedEnd of status report==== Log checksum 9C23F3B75DB334A66AEBC7C5EB66E534D1AFE4C34F5C501DB48FDE4165BD5A0E ====

2014 - Our Ruin Silhouettes

Треклист:
01. When Hope Disappears (8:59)*
02. In My Own Abyss (6:36)
03. A Reccurent Dream (8:56)
04. The Last Meal (7:55)**
05. My Hand in Yours (7:01)
06. Revolt (6:33)
07. What Remains (8:51)
total time 0:54:50
Доп. информация:
Solitude Productions [SP. 087-14]

Info

*- Feat. Pim Blankenstein**- Feat. Andreas Kaufmann

Отчёт ЕАС

Exact Audio Copy V1.0 beta 3 from 29. August 2011EAC extraction logfile from 23. December 2014, 7:23Doomed / Our Ruin SilhouettesUsed drive : ASUS DRW-1612BL Adapter: 2 ID: 0Read mode : SecureUtilize accurate stream : YesDefeat audio cache : YesMake use of C2 pointers : NoRead offset correction : 6Overread into Lead-In and Lead-Out : NoFill up missing offset samples with silence : YesDelete leading and trailing silent blocks : NoNull samples used in CRC calculations : YesUsed interface : Installed external ASPI interfaceUsed output format : User Defined EncoderSelected bitrate : 128 kBit/sQuality : HighAdd ID3 tag : NoCommand line compressor : C:\Program Files\EAC\Exact Audio Copy\Flac\flac.exeAdditional command line options : -V -8 -T "Date=%year%" -T "Genre=%genre%" %source%TOC of the extracted CD Track | Start | Length | Start sector | End sector --------------------------------------------------------- 1 | 0:00.00 | 8:59.19 | 0 | 40443 2 | 8:59.19 | 6:36.01 | 40444 | 70144 3 | 15:35.20 | 8:56.02 | 70145 | 110346 4 | 24:31.22 | 7:54.53 | 110347 | 145949 5 | 32:26.00 | 7:00.59 | 145950 | 177508 6 | 39:26.59 | 6:32.45 | 177509 | 206953 7 | 45:59.29 | 8:51.04 | 206954 | 246782Range status and errorsSelected range Filename C:\darkbrides\Doomed - Our Ruin Silhouettes.wav Peak level 100.0 % Extraction speed 8.9 X Range quality 99.9 % Test CRC 8A433FBF Copy CRC 8A433FBF Copy OKNo errors occurredAccurateRip summaryTrack 1 not present in databaseTrack 2 not present in databaseTrack 3 not present in databaseTrack 4 not present in databaseTrack 5 not present in databaseTrack 6 not present in databaseTrack 7 not present in databaseNone of the tracks are present in the AccurateRip databaseEnd of status report==== Log checksum BDBC75E7DF1C486553E9582A15E870490E40494DC9025342936097B8435D0B62 ====

2015 - Wrath Monolith

Треклист:
01. Paradoxon (12:14)
02. Our Ruin Silhouettes (6:14)
03. Euphoria's End (9:15)
04. The Triumph - Spit (9:38)
05. Looking Back (8:21)
06. I'm Climbing (5:02)
total time 0:50:44
Доп. информация:
Solitude Productions [SP. 103-15]

Отчёт ЕАС

Exact Audio Copy V1.0 beta 6 from 9. April 2015EAC extraction logfile from 20. May 2015, 13:32Doomed / Wrath MonolithUsed drive : ASUS DRW-1612BL Adapter: 2 ID: 0Read mode : SecureUtilize accurate stream : YesDefeat audio cache : YesMake use of C2 pointers : NoRead offset correction : 6Overread into Lead-In and Lead-Out : NoFill up missing offset samples with silence : YesDelete leading and trailing silent blocks : NoNull samples used in CRC calculations : YesUsed interface : Installed external ASPI interfaceUsed output format : User Defined EncoderSelected bitrate : 128 kBit/sQuality : HighAdd ID3 tag : NoCommand line compressor : C:\Program Files\EAC\Exact Audio Copy\Flac\flac.exeAdditional command line options : -V -8 -T "Date=%year%" -T "Genre=%genre%" %source%TOC of the extracted CD Track | Start | Length | Start sector | End sector --------------------------------------------------------- 1 | 0:00.00 | 12:13.62 | 0 | 55036 2 | 12:13.62 | 6:13.53 | 55037 | 83064 3 | 18:27.40 | 9:14.69 | 83065 | 124683 4 | 27:42.34 | 9:37.64 | 124684 | 168022 5 | 37:20.23 | 8:21.33 | 168023 | 205630 6 | 45:41.56 | 5:02.01 | 205631 | 228281Range status and errorsSelected range Filename C:\darkbrides\Doomed - Wrath Monolith.wav Peak level 100.0 % Extraction speed 4.5 X Range quality 99.9 % Test CRC 03464935 Copy CRC 03464935 Copy OKNo errors occurredAccurateRip summaryTrack 1 not present in databaseTrack 2 not present in databaseTrack 3 not present in databaseTrack 4 not present in databaseTrack 5 not present in databaseTrack 6 not present in databaseNone of the tracks are present in the AccurateRip databaseEnd of status report---- CUETools DB Plugin V2.1.6[CTDB TOCID: rFIxwCCc8C7o5iE_APTEeN.O28g-] disk not present in databaseSubmit result: rFIxwCCc8C7o5iE_APTEeN.O28g- has been uploaded==== Log checksum 6ED0C07EAE05B85E6AD763E55A1B238AD24FB3B404DC2538094DAE698C4D74F4 ====

2016 - Anna

Треклист:
01. Your Highness the Chaos (8:49)
02. Anna (3:59)
03. As the Thoughts Began to Be Tarnish (6:58)
04. The Weeping Trees (9:52)
05. Withering Leaves (10:19)
06. Roots Remain (1:52)
07. The Frozen Wish (8:52)
total time 0:50:41
Доп. информация:
Solitude Productions [SP.117-16]

Отчёт ЕАС

Exact Audio Copy V1.1 from 23. June 2015EAC extraction logfile from 25. October 2016, 22:28Doomed / AnnaUsed drive : ASUS DRW-1612BL Adapter: 2 ID: 0Read mode : SecureUtilize accurate stream : YesDefeat audio cache : YesMake use of C2 pointers : NoRead offset correction : 6Overread into Lead-In and Lead-Out : NoFill up missing offset samples with silence : YesDelete leading and trailing silent blocks : NoNull samples used in CRC calculations : YesUsed interface : Installed external ASPI interfaceUsed output format : User Defined EncoderSelected bitrate : 128 kBit/sQuality : HighAdd ID3 tag : NoCommand line compressor : C:\Program Files\EAC\Exact Audio Copy\Flac\flac.exeAdditional command line options : -V -8 -T "Date=%year%" -T "Genre=%genre%" %source%TOC of the extracted CD Track | Start | Length | Start sector | End sector --------------------------------------------------------- 1 | 0:00.00 | 8:49.30 | 0 | 39704 2 | 8:49.30 | 3:59.04 | 39705 | 57633 3 | 12:48.34 | 6:57.53 | 57634 | 88961 4 | 19:46.12 | 9:52.37 | 88962 | 133398 5 | 29:38.49 | 10:18.49 | 133399 | 179797 6 | 39:57.23 | 1:51.40 | 179798 | 188162 7 | 41:48.63 | 8:52.09 | 188163 | 228071Range status and errorsSelected range Filename C:\darkbrides\Doomed - Anna.wav Peak level 100.0 % Extraction speed 8.1 X Range quality 100.0 % Test CRC 0887B162 Copy CRC 0887B162 Copy OKNo errors occurredAccurateRip summaryTrack 1 not present in databaseTrack 2 not present in databaseTrack 3 not present in databaseTrack 4 not present in databaseTrack 5 not present in databaseTrack 6 not present in databaseTrack 7 not present in databaseNone of the tracks are present in the AccurateRip databaseEnd of status report---- CUETools DB Plugin V2.1.6[CTDB TOCID: VGxBWdHjTaEvDco53PLOCbNECIQ-] disk not present in databaseSubmit result: VGxBWdHjTaEvDco53PLOCbNECIQ- has been uploaded==== Log checksum BD1C20C78B2EEE4386E63C9AEA1CD0398E4689B02B63F24BA6D1F06133ABDEEE ====

2018 - 6 Anti-Odes To Life

Треклист:
01. The Doors (8:59)
02. Aura (10:11)
03. Touched (11:13)
04. Our Gifts (8:22)
05. Reason (9:06)
06. Insignificant (10:22)
07. Layers (6:58)
total time 1:05:10
Доп. информация:
Solitude Productions [SP. 134-18]

Отчёт ЕАС

Exact Audio Copy V1.3 from 2. September 2016EAC extraction logfile from 7. October 2018, 18:42Doomed / 6 Anti-Odes To LifeUsed drive : ASUS DRW-1612BL Adapter: 2 ID: 0Read mode : SecureUtilize accurate stream : YesDefeat audio cache : YesMake use of C2 pointers : NoRead offset correction : 6Overread into Lead-In and Lead-Out : NoFill up missing offset samples with silence : YesDelete leading and trailing silent blocks : NoNull samples used in CRC calculations : YesUsed interface : Installed external ASPI interfaceUsed output format : User Defined EncoderSelected bitrate : 128 kBit/sQuality : HighAdd ID3 tag : NoCommand line compressor : C:\Program Files\EAC\Exact Audio Copy\Flac\flac.exeAdditional command line options : -V -8 -T "Date=%year%" -T "Genre=%genre%" %source%TOC of the extracted CD Track | Start | Length | Start sector | End sector --------------------------------------------------------- 1 | 0:00.00 | 8:58.38 | 0 | 40387 2 | 8:58.38 | 10:10.60 | 40388 | 86197 3 | 19:09.23 | 11:12.38 | 86198 | 136635 4 | 30:21.61 | 8:21.56 | 136636 | 174266 5 | 38:43.42 | 9:06.22 | 174267 | 215238 6 | 47:49.64 | 10:22.22 | 215239 | 261910 7 | 58:12.11 | 6:58.25 | 261911 | 293285Range status and errorsSelected range Filename C:\darkbrides\Doomed - 6 Anti-Odes To Life.wav Peak level 100.0 % Extraction speed 7.3 X Range quality 100.0 % Test CRC 35883799 Copy CRC 35883799 Copy OKNo errors occurredAccurateRip summaryTrack 1 not present in databaseTrack 2 not present in databaseTrack 3 not present in databaseTrack 4 not present in databaseTrack 5 not present in databaseTrack 6 not present in databaseTrack 7 not present in databaseNone of the tracks are present in the AccurateRip databaseEnd of status report---- CUETools DB Plugin V2.1.6[CTDB TOCID: hiS7n5td0y5CaRM8m4_GISJRLYk-] disk not present in databaseSubmit result: hiS7n5td0y5CaRM8m4_GISJRLYk- has been uploaded==== Log checksum 4D45998F2C666D583DC2BA930BE95CC857B818BC0CB1866868CB244BF6D1975B ====
[erzsebet.org].t23807.torrent 
Торрент: Зарегистрирован [ 2018-11-08 18:57 ]

Скачать .torrent

Скачать

21 KB

Статус: проверено
Скачан: 0 раз
Размер: 2,68 GB
Поблагодарили: 0  Спасибо
terms.php
[Профиль]  [ЛС] 
Показать сообщения:    
Ответить на тему

Текущее время: 16-Ноя 20:02

Часовой пояс: UTC + 3



Вы не можете начинать темы
Вы не можете отвечать на сообщения
Вы не можете редактировать свои сообщения
Вы не можете удалять свои сообщения
Вы не можете голосовать в опросах
Вы не можете прикреплять файлы к сообщениям
Вы можете скачивать файлы