[UKR] (Folk Metal) [CD] Тінь Сонця - Грім В Ковальні Бога - 2014, FLAC (image+.cue), lossless

Ответить на тему
Статистика раздачи
Размер:  421 MB   |    Зарегистрирован:  7 дней   |    Скачан:  0 раз

Полного источника не было: 6 дней

Личеров:  22  [  0 KB/s  ]   Подробная статистика пиров
 
     
 
 
 
Автор Сообщение

erzsebet ®

Стаж: 1 год 7 месяцев

Сообщений: 21185

Откуда: с небес

Создавать темы 08-Ноя-2018 20:28  |  Сменить автора

[Цитировать] 

Тінь Сонця - Грім В Ковальні Бога
Жанр: Folk Metal
Носитель: CD
Год издания: 2014
Издатель (лейбл): Self-Released
Страна: Ukraine
Аудиокодек: FLAC (*.flac)
Тип рипа: image+.cue
Битрейт аудио: lossless
Продолжительность: 50:58
Наличие сканов в содержимом раздачи: да-01. Меч Арея
02. Сонцечоловік
03. Народна Bійна
04. Коли Hа Cерці Cумно
05. Ніколи Hе Плач
06. Збої
07. Вітряк
08. Косарі
09. Дикі Гуси
10. Додому
11. Меч Арея (Instrumental)

Лог создания рипа

Exact Audio Copy V1.0 beta 3 from 29. August 2011EAC extraction logfile from 24. February 2014, 23:26Тінь Сонця / Грім В Ковальні БогаUsed drive : ASUS DRW-1608P Adapter: 1 ID: 1Read mode : SecureUtilize accurate stream : YesDefeat audio cache : YesMake use of C2 pointers : NoRead offset correction : 48Overread into Lead-In and Lead-Out : NoFill up missing offset samples with silence : YesDelete leading and trailing silent blocks : NoNull samples used in CRC calculations : YesUsed interface : Native Win32 interface for Win NT & 2000Used output format : Internal WAV RoutinesSample format : 44.100 Hz; 16 Bit; StereoTOC of the extracted CD Track | Start | Length | Start sector | End sector --------------------------------------------------------- 1 | 0:00.00 | 5:19.69 | 0 | 23993 2 | 5:19.69 | 4:26.38 | 23994 | 43981 3 | 9:46.32 | 6:08.50 | 43982 | 71631 4 | 15:55.07 | 3:09.27 | 71632 | 85833 5 | 19:04.34 | 4:26.49 | 85834 | 105832 6 | 23:31.08 | 3:25.47 | 105833 | 121254 7 | 26:56.55 | 4:21.60 | 121255 | 140889 8 | 31:18.40 | 3:56.26 | 140890 | 158615 9 | 35:14.66 | 6:13.54 | 158616 | 186644 10 | 41:28.45 | 4:11.18 | 186645 | 205487 11 | 45:39.63 | 5:19.08 | 205488 | 229420Range status and errorsSelected range Filename D:\Тінь Сонця - Грім В Ковальні Бога.wav Peak level 100.0 % Extraction speed 7.0 X Range quality 100.0 % Test CRC 4B226835 Copy CRC 4B226835 Copy OKNo errors occurredAccurateRip summaryTrack 1 not present in databaseTrack 2 not present in databaseTrack 3 not present in databaseTrack 4 not present in databaseTrack 5 not present in databaseTrack 6 not present in databaseTrack 7 not present in databaseTrack 8 not present in databaseTrack 9 not present in databaseTrack 10 not present in databaseTrack 11 not present in databaseNone of the tracks are present in the AccurateRip databaseEnd of status report==== Log checksum 789A2DE8C22FB76CFA0AEB949D6E3AEE2FD46D081F967797523A4FBA63845AA5 ====

Об исполнителе (группе)

«Тінь Сонця» представляє унікальний в Україні та світі жанр heavy-folk або ж у народі – козацький рок. Група поєднує у звучанні своєї музики бандуру і скрипку з традиційним для рок-музики гітарним супроводом. Цікава й ідеологія гурту: в умовах глобалізованого сьогодення відроджується славетна українська минувшина, а напівзабута міфологія постає реальністю. Але найголовніше – це те, що команда позиціонує себе як послідовник якісної рок-музики зі змістовними текстами.http://sunshadow.com.ua/

Состав

Сергій Василюк - вокал
Іван Лузан - бандура, бек-вокал, клавішні
Руслан Мікаєлян - гітара
Микола Лузан - гітара
Іван Григоряк - бас
Володимир Хаврук - ударні
[erzsebet.org].t23810.torrent 
Торрент: Зарегистрирован [ 2018-11-08 20:28 ]

Скачать .torrent

Скачать

18 KB

Статус: проверено
Скачан: 0 раз
Размер: 421 MB
Поблагодарили: 0  Спасибо
terms.php
[Профиль]  [ЛС] 

erzsebet ®

Стаж: 1 год 7 месяцев

Сообщений: 21185

Откуда: с небес

Создавать темы 08-Ноя-2018 20:28 (спустя 39 секунд)  |  Сменить автора

[Цитировать] 

Виз я слушая хорошую музыку))
Слава Україні!!! Героям Слава!!!
[Профиль]  [ЛС] 
Показать сообщения:    
Ответить на тему

Текущее время: 16-Ноя 20:04

Часовой пояс: UTC + 3



Вы не можете начинать темы
Вы не можете отвечать на сообщения
Вы не можете редактировать свои сообщения
Вы не можете удалять свои сообщения
Вы не можете голосовать в опросах
Вы не можете прикреплять файлы к сообщениям
Вы можете скачивать файлы