MR sakubasu / MR saku basu (ep. 1 of 1) (Central Yuu) [cen] [2014, succubus, group, oral, WEB-DL] [jap / eng] [720p]

Ответить на тему
Статистика раздачи
Размер:  3,7 GB   |    Зарегистрирован:  25 дней   |    Скачан:  1 раз

Полного источника не было: 10 дней

 
     
 
 
 
Автор Сообщение

erzsebet ®

Стаж: 1 год 11 месяцев

Сообщений: 31639

Откуда: Hungary

Создавать темы 28-Фев-2019 15:15  |  Сменить автора

[Цитировать] 

MR sakubasu
MR saku basu
MRサクバス

Год выпуска: 2014
Жанр: succubus, group, oral
Серии: ep. 1 of 1
Продолжительность: 1h 58mn
Цензура: Есть во всех файлах
Озвучка: Японская оригинальная
Субтитры: Английские внешние ASS
Студия: Central Yuu
Описание:
Story
A basement discovers remains of the Elf that unprecedented in a past, scholars not much different from a thief are weird deeply, As for the Oku of remains of the So, a crystal of the huge Daiya exists innumerably; was right treasures room, However, may be interested, Strangely, the body of attractive women was put in a stone, Men change their countenance in historic discovery, and be going to take a sample home with it, And, several hours later, a mysterious case to say that all the residents of the town disappear reaches the Gunji Mme., Therefore elite soldier tasshu and the best corps equal to the reconnaissance duty will leave for the town.
https://www.dmm.co.jp/en/dc/doujin/-/detail/=/cid=d_066269/
https://www.dlsite.com/maniax/work/=/product_id/RJ130307.html
Качество видео: WEB-DL
Разрешение видео: 720p
Формат видео: WMV
Видео: 1280-1024, 5-4, 30 fps, VC-1 / WMV3, 4300 kbps
Аудио: jpn, WMA Pro, Stereo, 44.1 KHz, 24 bits, 128 kbps

Скринлист

MediaInfo

General
Complete name : MR sakubasu [RJ130307][1E8FD152].wmv
Format : Windows Media
File size : 3.69 GiB
Duration : 1 h 58 min
Overall bit rate mode : Variable
Overall bit rate : 4 455 kb/s
Maximum Overall bit rate : 12.8 Mb/s
Encoded date : UTC 2014-02-11 02:16:34.618
Video
ID : 2
Format : VC-1
Format profile : MP@HL
Codec ID : WMV3
Codec ID/Info : Windows Media Video 9
Codec ID/Hint : WMV3
Description of the codec : Windows Media Video 9 - Professional
Duration : 1 h 58 min
Bit rate mode : Variable
Bit rate : 4 300 kb/s
Width : 1 280 pixels
Height : 1 024 pixels
Display aspect ratio : 5:4
Frame rate : 30.000 FPS
Color space : YUV
Chroma subsampling : 4:2:0
Bit depth : 8 bits
Scan type : Progressive
Compression mode : Lossy
Bits/(Pixel*Frame) : 0.109
Stream size : 3.57 GiB (97%)
NumberOfFrames : 213723
Audio
ID : 1
Format : WMA
Format profile : Pro
Codec ID : 162
Codec ID/Info : Windows Media Audio
Description of the codec : Windows Media Audio 10 Professional - 128 kbps, 44 kHz, 2 channel 24 bit 2-pass VBR
Duration : 1 h 58 min
Bit rate mode : Variable
Bit rate : 128 kb/s
Channel(s) : 2 channels
Sampling rate : 44.1 kHz
Bit depth : 24 bits
Stream size : 109 MiB (3%)
NumberOfFrames : 19168
[erzsebet.org].t33990.torrent 
Торрент: Зарегистрирован [ 2019-02-28 15:15 ]

Скачать .torrent

Скачать

19 KB

Статус: проверено
Скачан: 1 раз
Размер: 3,7 GB
Поблагодарили: 0  Спасибо
terms.php
[Профиль]  [ЛС] 
Показать сообщения:    
Ответить на тему

Текущее время: 25-Мар 21:54

Часовой пояс: UTC + 3



Вы не можете начинать темы
Вы не можете отвечать на сообщения
Вы не можете редактировать свои сообщения
Вы не можете удалять свои сообщения
Вы не можете голосовать в опросах
Вы не можете прикреплять файлы к сообщениям
Вы можете скачивать файлы