(Psychobilly) P. Paul Fenech (ex-Meteors) - Screaming In The 10th Key - (1993) 2000, FLAC (tracks+.cue), lossless

Ответить на тему
Статистика раздачи
Размер:  319 MB   |    Зарегистрирован:  5 дней   |    Скачан:  1 раз

Полного источника не было: 4 дня

 
     
 
 
 
Автор Сообщение

erzsebet ®

Стаж: 1 год 11 месяцев

Сообщений: 31245

Откуда: Hungary

Создавать темы 15-Мар-2019 02:41  |  Сменить автора

[Цитировать] 

P. Paul Fenech (ex-Meteors) / Screaming In The 10th Key
Жанр: Psychobilly
Страна-производитель диска: Russia
Год издания: (1993) 2000
Издатель (лейбл): REAL CD
Номер по каталогу: CDREAL0301428
Страна: UK
Аудиокодек: FLAC (*.flac)
Тип рипа: tracks+.cue
Битрейт аудио: lossless
Продолжительность: 0:50:30
Наличие сканов в содержимом раздачи: да
Треклист:
01. When Guitars Attack [0:03:36.01]
02. Keep On Burning [0:04:35.26]
03. Riddle [0:04:01.18]
04. All I Want (Drugs & Headphones Mix) [0:05:04.26]
05. The Duellist [0:03:13.54]
06. Long, Long Way [0:04:05.44]
07. Dollarhyde In Blue [0:04:06.47]
08. Hey Mr Hangman [0:04:35.59]
09. Runaway [0:03:48.49]
10. Sunset's Almost On You [0:05:21.04]
11. Put Your Lights On [0:08:02.42]

Лог создания рипа

Exact Audio Copy V1.0 beta 3 from 29. August 2011
Отчёт EAC об извлечении, выполненном 25. мая 2014, 16:37
P. Paul Fenech / Screaming In The 10th Key
Дисковод: ASUS DRW-1814BLT Adapter: 4 ID: 0
Режим чтения : Достоверность
Использование точного потока : Да
Отключение кэша аудио : Да
Использование указателей C2 : Нет
Коррекция смещения при чтении : 6
Способность читать области Lead-in и Lead-out : Нет
Заполнение пропущенных сэмплов тишиной : Да
Удаление блоков с тишиной в начале и конце : Нет
При вычислениях CRC использовались нулевые сэмплы : Да
Интерфейс : Встроенный Win32-интерфейс для Win NT/2000
Обработка зазоров : Добавлено к предыдущему треку
Выходной формат : Пользовательский кодировщик
Выбранный битрейт : 128 kBit/s
Качество : Высокий
Добавление ID3-тега : Нет
Утилита сжатия : C:\Program Files\Exact Audio Copy\Flac\flac.exe
Дополнительные параметры : -V -8 -T "Genre=%genre%" -T "Artist=%artist%" -T "Title=%title%" -T "Album=%albumtitle%" -T "Date=%year%" -T "Tracknumber=%tracknr%" -T "Comment=EAC1.0b2 FLAC -8" %source%
TOC извлечённого CD
Трек | Старт | Длительность | Начальный сектор | Конечный сектор
---------------------------------------------------------------------
1 | 0:00.00 | 3:36.01 | 0 | 16200
2 | 3:36.01 | 4:35.26 | 16201 | 36851
3 | 8:11.27 | 4:01.18 | 36852 | 54944
4 | 12:12.45 | 5:04.26 | 54945 | 77770
5 | 17:16.71 | 3:13.54 | 77771 | 92299
6 | 20:30.50 | 4:05.44 | 92300 | 110718
7 | 24:36.19 | 4:06.47 | 110719 | 129215
8 | 28:42.66 | 4:35.59 | 129216 | 149899
9 | 33:18.50 | 3:48.49 | 149900 | 167048
10 | 37:07.24 | 5:21.04 | 167049 | 191127
11 | 42:28.28 | 8:02.42 | 191128 | 227319
Трек 1
Имя файла R:\Раздача 16\Новая папка\01 When Guitars Attack.wav
Длина предзазора 0:00:02.00
Пиковый уровень 83.2 %
Скорость извлечения 4.8 X
Качество трека 100.0 %
CRC теста 1D4FD8A3
CRC копии 1D4FD8A3
Копирование... OK
Трек 2
Имя файла R:\Раздача 16\Новая папка\02 Keep On Burning.wav
Пиковый уровень 88.8 %
Скорость извлечения 5.4 X
Качество трека 100.0 %
CRC теста 30ECCA71
CRC копии 30ECCA71
Копирование... OK
Трек 3
Имя файла R:\Раздача 16\Новая папка\03 Riddle.wav
Пиковый уровень 80.9 %
Скорость извлечения 5.7 X
Качество трека 100.0 %
CRC теста 93F8C08E
CRC копии 93F8C08E
Копирование... OK
Трек 4
Имя файла R:\Раздача 16\Новая папка\04 All I Want (Drugs & Headphones Mix).wav
Пиковый уровень 93.5 %
Скорость извлечения 6.3 X
Качество трека 100.0 %
CRC теста 54797630
CRC копии 54797630
Копирование... OK
Трек 5
Имя файла R:\Раздача 16\Новая папка\05 The Duellist.wav
Пиковый уровень 95.2 %
Скорость извлечения 6.2 X
Качество трека 100.0 %
CRC теста 4CD69806
CRC копии 4CD69806
Копирование... OK
Трек 6
Имя файла R:\Раздача 16\Новая папка\06 Long, Long Way.wav
Пиковый уровень 89.1 %
Скорость извлечения 6.8 X
Качество трека 100.0 %
CRC теста BFE271A1
CRC копии BFE271A1
Копирование... OK
Трек 7
Имя файла R:\Раздача 16\Новая папка\07 Dollarhyde In Blue.wav
Пиковый уровень 79.8 %
Скорость извлечения 6.2 X
Качество трека 99.9 %
CRC теста 9282D82B
CRC копии 9282D82B
Копирование... OK
Трек 8
Имя файла R:\Раздача 16\Новая папка\08 Hey Mr Hangman.wav
Пиковый уровень 89.1 %
Скорость извлечения 7.4 X
Качество трека 100.0 %
CRC теста 514B9E72
CRC копии 514B9E72
Копирование... OK
Трек 9
Имя файла R:\Раздача 16\Новая папка\09 Runaway.wav
Пиковый уровень 100.0 %
Скорость извлечения 7.6 X
Качество трека 100.0 %
CRC теста ECD9338B
CRC копии ECD9338B
Копирование... OK
Трек 10
Имя файла R:\Раздача 16\Новая папка\10 Sunset's Almost On You.wav
Пиковый уровень 83.4 %
Скорость извлечения 7.4 X
Качество трека 99.9 %
CRC теста 064C7619
CRC копии 064C7619
Копирование... OK
Трек 11
Имя файла R:\Раздача 16\Новая папка\11 Put Your Lights On.wav
Пиковый уровень 100.0 %
Скорость извлечения 9.0 X
Качество трека 100.0 %
CRC теста 571CA81B
CRC копии 571CA81B
Копирование... OK
Ошибок не произошло
Конец отчёта
==== Контрольная сумма отчёта BFCE2204FC96D24C6D69F1A662213662096F00C0709CA7F5DC3245F3500B5CE0 ====

Содержание индексной карты (.CUE)

REM GENRE Psychobilly
REM DATE 2000
REM DISCID 7E0BD60B
REM COMMENT "ExactAudioCopy v1.0b3"
PERFORMER "P. Paul Fenech"
TITLE "Screaming In The 10th Key"
FILE "01 When Guitars Attack.wav" WAVE
TRACK 01 AUDIO
TITLE "When Guitars Attack"
PERFORMER "P. Paul Fenech"
INDEX 01 00:00:00
FILE "02 Keep On Burning.wav" WAVE
TRACK 02 AUDIO
TITLE "Keep On Burning"
PERFORMER "P. Paul Fenech"
INDEX 01 00:00:00
FILE "03 Riddle.wav" WAVE
TRACK 03 AUDIO
TITLE "Riddle"
PERFORMER "P. Paul Fenech"
INDEX 01 00:00:00
FILE "04 All I Want (Drugs & Headphones Mix).wav" WAVE
TRACK 04 AUDIO
TITLE "All I Want (Drugs & Headphones Mix)"
PERFORMER "P. Paul Fenech"
INDEX 01 00:00:00
FILE "05 The Duellist.wav" WAVE
TRACK 05 AUDIO
TITLE "The Duellist"
PERFORMER "P. Paul Fenech"
INDEX 01 00:00:00
FILE "06 Long, Long Way.wav" WAVE
TRACK 06 AUDIO
TITLE "Long, Long Way"
PERFORMER "P. Paul Fenech"
INDEX 01 00:00:00
FILE "07 Dollarhyde In Blue.wav" WAVE
TRACK 07 AUDIO
TITLE "Dollarhyde In Blue"
PERFORMER "P. Paul Fenech"
INDEX 01 00:00:00
FILE "08 Hey Mr Hangman.wav" WAVE
TRACK 08 AUDIO
TITLE "Hey Mr Hangman"
PERFORMER "P. Paul Fenech"
INDEX 01 00:00:00
FILE "09 Runaway.wav" WAVE
TRACK 09 AUDIO
TITLE "Runaway"
PERFORMER "P. Paul Fenech"
INDEX 01 00:00:00
FILE "10 Sunset's Almost On You.wav" WAVE
TRACK 10 AUDIO
TITLE "Sunset's Almost On You"
PERFORMER "P. Paul Fenech"
INDEX 01 00:00:00
FILE "11 Put Your Lights On.wav" WAVE
TRACK 11 AUDIO
TITLE "Put Your Lights On"
PERFORMER "P. Paul Fenech"
INDEX 01 00:00:00
[erzsebet.org].t35036.torrent 
Торрент: Зарегистрирован [ 2019-03-15 02:41 ]

Скачать .torrent

Скачать

14 KB

Статус: проверено
Скачан: 1 раз
Размер: 319 MB
Поблагодарили: 0  Спасибо
terms.php
[Профиль]  [ЛС] 
Показать сообщения:    
Ответить на тему

Текущее время: 20-Мар 15:07

Часовой пояс: UTC + 3



Вы не можете начинать темы
Вы не можете отвечать на сообщения
Вы не можете редактировать свои сообщения
Вы не можете удалять свои сообщения
Вы не можете голосовать в опросах
Вы не можете прикреплять файлы к сообщениям
Вы можете скачивать файлы