(Psychobilly) The Meteors - Kings of psychobilly (5CD set) - 2008, FLAC (tracks+.cue), lossless

Ответить на тему
Статистика раздачи
Размер:  1,84 GB   |    Зарегистрирован:  5 дней   |    Скачан:  1 раз

Полного источника не было: 4 дня

 
     
 
 
 
Автор Сообщение

erzsebet ®

Стаж: 1 год 11 месяцев

Сообщений: 31246

Откуда: Hungary

Создавать темы 15-Мар-2019 03:03  |  Сменить автора

[Цитировать] 

The Meteors - Kings of psychobilly (5CD set)
Жанр: Psychobilly
Год выпуска диска: 2008
Аудио кодек: FLAC
Тип рипа: tracks+.cue
Битрейт аудио: lossless

CD1

Трэклист:
1. (00:02:27) The Meteors - Voodoo Rythm
2. (00:02:07) The Meteors - Graveyard Stomp
3. (00:01:48) The Meteors - Shout So Loud
4. (00:02:16) The Meteors - In The Cards
5. (00:04:59) The Meteors - Love You to Death
6. (00:02:33) The Meteors - The Crazed
7. (00:02:29) The Meteors - Wrecking Crew
8. (00:02:54) The Meteors - When A Stranger Calls
9. (00:03:12) The Meteors - Hills Have Eyes
10. (00:03:09) The Meteors - Johnny Remember Me
11. (00:05:00) The Meteors - Power Of Steel
12. (00:02:46) The Meteors - Cecil Drives a Combine Harvester
13. (00:03:03) The Meteors - In Too Deep
14. (00:03:33) The Meteors - Kit Boy
15. (00:03:21) The Meteors - Electro II
16. (00:02:43) The Meteors - Stampede

Лог EAC

Exact Audio Copy V0.99 prebeta 5 from 4. May 2009
EAC extraction logfile from 26. October 2009, 17:30
The Meteors / Kings of Psychobilly CD1
Used drive : HL-DT-STDVDRAM_GSA-H60N Adapter: 1 ID: 0
Read mode : Secure
Utilize accurate stream : Yes
Defeat audio cache : Yes
Make use of C2 pointers : No
Read offset correction : 667
Overread into Lead-In and Lead-Out : No
Fill up missing offset samples with silence : Yes
Delete leading and trailing silent blocks : No
Null samples used in CRC calculations : Yes
Used interface : Native Win32 interface for Win NT & 2000
Gap handling : Appended to previous track
Used output format : User Defined Encoder
Selected bitrate : 320 kBit/s
Quality : High
Add ID3 tag : No
Command line compressor : C:\Program Files\FLAC\flac.exe
Additional command line options : -8 -A tukey(0.25) -A gauss(0.1875) -b 4096 -V -T "artist=%a" -T "title=%t" -T "album=%g" -T "date=%y" -T "tracknumber=%n" -T "genre=%m" %s
TOC of the extracted CD
Track | Start | Length | Start sector | End sector
---------------------------------------------------------
1 | 0:00.00 | 2:27.12 | 0 | 11036
2 | 2:27.12 | 2:07.01 | 11037 | 20562
3 | 4:34.13 | 1:47.42 | 20563 | 28629
4 | 6:21.55 | 2:15.38 | 28630 | 38792
5 | 8:37.18 | 4:58.72 | 38793 | 61214
6 | 13:36.15 | 2:32.60 | 61215 | 72674
7 | 16:09.00 | 2:29.16 | 72675 | 83865
8 | 18:38.16 | 2:54.35 | 83866 | 96950
9 | 21:32.51 | 3:12.30 | 96951 | 111380
10 | 24:45.06 | 3:08.62 | 111381 | 125542
11 | 27:53.68 | 5:00.27 | 125543 | 148069
12 | 32:54.20 | 2:46.36 | 148070 | 160555
13 | 35:40.56 | 3:02.41 | 160556 | 174246
14 | 38:43.22 | 3:32.48 | 174247 | 190194
15 | 42:15.70 | 3:21.03 | 190195 | 205272
16 | 45:36.73 | 2:43.35 | 205273 | 217532
Track 1
Filename E:\Muziek van Mark\_The Meteors\The Meteors - Kings of Psychobilly 5CD FLAC\CD1\01 The Meteors - Voodoo Rythm.wav
Pre-gap length 0:00:02.00
Peak level 100.0 %
Track quality 100.0 %
Test CRC F7CC9261
Copy CRC F7CC9261
Track not present in AccurateRip database
Copy OK
Track 2
Filename E:\Muziek van Mark\_The Meteors\The Meteors - Kings of Psychobilly 5CD FLAC\CD1\02 The Meteors - Graveyard Stomp.wav
Pre-gap length 0:00:02.00
Peak level 100.0 %
Track quality 100.0 %
Test CRC 803E7D3C
Copy CRC 803E7D3C
Track not present in AccurateRip database
Copy OK
Track 3
Filename E:\Muziek van Mark\_The Meteors\The Meteors - Kings of Psychobilly 5CD FLAC\CD1\03 The Meteors - Shout So Loud.wav
Pre-gap length 0:00:02.00
Peak level 100.0 %
Track quality 99.9 %
Test CRC 6246ECEF
Copy CRC 6246ECEF
Track not present in AccurateRip database
Copy OK
Track 4
Filename E:\Muziek van Mark\_The Meteors\The Meteors - Kings of Psychobilly 5CD FLAC\CD1\04 The Meteors - In The Cards.wav
Pre-gap length 0:00:01.77
Peak level 100.0 %
Track quality 100.0 %
Test CRC 80E104D1
Copy CRC 80E104D1
Track not present in AccurateRip database
Copy OK
Track 5
Filename E:\Muziek van Mark\_The Meteors\The Meteors - Kings of Psychobilly 5CD FLAC\CD1\05 The Meteors - Love You to Death.wav
Pre-gap length 0:00:01.90
Peak level 100.0 %
Track quality 100.0 %
Test CRC 82FBA169
Copy CRC 82FBA169
Track not present in AccurateRip database
Copy OK
Track 6
Filename E:\Muziek van Mark\_The Meteors\The Meteors - Kings of Psychobilly 5CD FLAC\CD1\06 The Meteors - The Crazed.wav
Pre-gap length 0:00:01.93
Peak level 99.9 %
Track quality 100.0 %
Test CRC 5EA1458E
Copy CRC 5EA1458E
Track not present in AccurateRip database
Copy OK
Track 7
Filename E:\Muziek van Mark\_The Meteors\The Meteors - Kings of Psychobilly 5CD FLAC\CD1\07 The Meteors - Wrecking Crew.wav
Pre-gap length 0:00:02.00
Peak level 99.9 %
Track quality 100.0 %
Test CRC 813346DF
Copy CRC 813346DF
Track not present in AccurateRip database
Copy OK
Track 8
Filename E:\Muziek van Mark\_The Meteors\The Meteors - Kings of Psychobilly 5CD FLAC\CD1\08 The Meteors - When A Stranger Calls.wav
Pre-gap length 0:00:02.00
Peak level 100.0 %
Track quality 100.0 %
Test CRC 12B38EB1
Copy CRC 12B38EB1
Track not present in AccurateRip database
Copy OK
Track 9
Filename E:\Muziek van Mark\_The Meteors\The Meteors - Kings of Psychobilly 5CD FLAC\CD1\09 The Meteors - Hills Have Eyes.wav
Pre-gap length 0:00:02.00
Peak level 100.0 %
Track quality 100.0 %
Test CRC 784080AF
Copy CRC 784080AF
Track not present in AccurateRip database
Copy OK
Track 10
Filename E:\Muziek van Mark\_The Meteors\The Meteors - Kings of Psychobilly 5CD FLAC\CD1\10 The Meteors - Johnny Remember Me.wav
Pre-gap length 0:00:01.90
Peak level 100.0 %
Track quality 100.0 %
Test CRC 1DFDDED9
Copy CRC 1DFDDED9
Track not present in AccurateRip database
Copy OK
Track 11
Filename E:\Muziek van Mark\_The Meteors\The Meteors - Kings of Psychobilly 5CD FLAC\CD1\11 The Meteors - Power Of Steel.wav
Pre-gap length 0:00:01.77
Peak level 100.0 %
Track quality 100.0 %
Test CRC 70BC9392
Copy CRC 70BC9392
Track not present in AccurateRip database
Copy OK
Track 12
Filename E:\Muziek van Mark\_The Meteors\The Meteors - Kings of Psychobilly 5CD FLAC\CD1\12 The Meteors - Cecil Drives a Combine Harvester.wav
Pre-gap length 0:00:02.00
Peak level 100.0 %
Track quality 100.0 %
Test CRC 7416C09F
Copy CRC 7416C09F
Track not present in AccurateRip database
Copy OK
Track 13
Filename E:\Muziek van Mark\_The Meteors\The Meteors - Kings of Psychobilly 5CD FLAC\CD1\13 The Meteors - In Too Deep.wav
Pre-gap length 0:00:02.00
Peak level 100.0 %
Track quality 100.0 %
Test CRC 03BC37C8
Copy CRC 03BC37C8
Track not present in AccurateRip database
Copy OK
Track 14
Filename E:\Muziek van Mark\_The Meteors\The Meteors - Kings of Psychobilly 5CD FLAC\CD1\14 The Meteors - Kit Boy.wav
Pre-gap length 0:00:02.00
Peak level 100.0 %
Track quality 100.0 %
Test CRC F8C41568
Copy CRC F8C41568
Track not present in AccurateRip database
Copy OK
Track 15
Filename E:\Muziek van Mark\_The Meteors\The Meteors - Kings of Psychobilly 5CD FLAC\CD1\15 The Meteors - Electro II.wav
Pre-gap length 0:00:02.00
Peak level 100.0 %
Track quality 100.0 %
Test CRC 415C5061
Copy CRC 415C5061
Track not present in AccurateRip database
Copy OK
Track 16
Filename E:\Muziek van Mark\_The Meteors\The Meteors - Kings of Psychobilly 5CD FLAC\CD1\16 The Meteors - Stampede.wav
Pre-gap length 0:00:02.00
Peak level 99.9 %
Track quality 100.0 %
Test CRC BA5AAE45
Copy CRC BA5AAE45
Track not present in AccurateRip database
Copy OK
None of the tracks are present in the AccurateRip database
No errors occurred
End of status report

CUE

REM GENRE Psychobilly
REM DATE 2008
REM DISCID EA0B5410
REM COMMENT "ExactAudioCopy v0.99pb5"
FILE "01 The Meteors - Voodoo Rythm.wav" WAVE
TRACK 01 AUDIO
INDEX 01 00:00:00
TRACK 02 AUDIO
INDEX 00 02:25:12
FILE "02 The Meteors - Graveyard Stomp.wav" WAVE
INDEX 01 00:00:00
TRACK 03 AUDIO
INDEX 00 02:05:01
FILE "03 The Meteors - Shout So Loud.wav" WAVE
INDEX 01 00:00:00
TRACK 04 AUDIO
INDEX 00 01:45:59
FILE "04 The Meteors - In The Cards.wav" WAVE
INDEX 01 00:00:00
TRACK 05 AUDIO
INDEX 00 02:13:45
FILE "05 The Meteors - Love You to Death.wav" WAVE
INDEX 01 00:00:00
TRACK 06 AUDIO
INDEX 00 04:57:02
FILE "06 The Meteors - The Crazed.wav" WAVE
INDEX 01 00:00:00
TRACK 07 AUDIO
INDEX 00 02:30:60
FILE "07 The Meteors - Wrecking Crew.wav" WAVE
INDEX 01 00:00:00
TRACK 08 AUDIO
INDEX 00 02:27:16
FILE "08 The Meteors - When A Stranger Calls.wav" WAVE
INDEX 01 00:00:00
TRACK 09 AUDIO
INDEX 00 02:52:35
FILE "09 The Meteors - Hills Have Eyes.wav" WAVE
INDEX 01 00:00:00
TRACK 10 AUDIO
INDEX 00 03:10:37
FILE "10 The Meteors - Johnny Remember Me.wav" WAVE
INDEX 01 00:00:00
TRACK 11 AUDIO
INDEX 00 03:07:04
FILE "11 The Meteors - Power Of Steel.wav" WAVE
INDEX 01 00:00:00
TRACK 12 AUDIO
INDEX 00 04:58:27
FILE "12 The Meteors - Cecil Drives a Combine Harvester.wav" WAVE
INDEX 01 00:00:00
TRACK 13 AUDIO
INDEX 00 02:44:36
FILE "13 The Meteors - In Too Deep.wav" WAVE
INDEX 01 00:00:00
TRACK 14 AUDIO
INDEX 00 03:00:41
FILE "14 The Meteors - Kit Boy.wav" WAVE
INDEX 01 00:00:00
TRACK 15 AUDIO
INDEX 00 03:30:48
FILE "15 The Meteors - Electro II.wav" WAVE
INDEX 01 00:00:00
TRACK 16 AUDIO
INDEX 00 03:19:03
FILE "16 The Meteors - Stampede.wav" WAVE
INDEX 01 00:00:00

CD2

Трэклист:
1. (00:03:53) The Meteors - I'm Just a Dog
2. (00:04:05) The Meteors - Michael Myers
3. (00:04:41) The Meteors - Only A Furry In My Heart
4. (00:04:07) The Meteors - Rhythm of The Bell
5. (00:02:58) The Meteors - Out Of Time
6. (00:02:45) The Meteors - Ain't Gonna Bring Me Down
7. (00:03:55) The Meteors - Take A Ride
8. (00:03:42) The Meteors - Just The Three Of Us
9. (00:02:29) The Meteors - I Bury The Living
10. (00:03:02) The Meteors - Sewertime Blues
11. (00:01:59) The Meteors - Mind Over Matter
12. (00:03:19) The Meteors - Here's Johnny
13. (00:03:55) The Meteors - Ain't Takin A Chance
14. (00:02:56) The Meteors - Midnite People
15. (00:04:48) The Meteors - Repo Man
16. (00:03:16) The Meteors - Low Living Daddy
17. (00:02:48) The Meteors - You Crack Me Up

Лог EAC

Exact Audio Copy V0.99 prebeta 5 from 4. May 2009
EAC extraction logfile from 26. October 2009, 18:42
The Meteors / Kings of Psychobilly CD2
Used drive : HL-DT-STDVDRAM_GSA-H60N Adapter: 1 ID: 0
Read mode : Secure
Utilize accurate stream : Yes
Defeat audio cache : Yes
Make use of C2 pointers : No
Read offset correction : 667
Overread into Lead-In and Lead-Out : No
Fill up missing offset samples with silence : Yes
Delete leading and trailing silent blocks : No
Null samples used in CRC calculations : Yes
Used interface : Native Win32 interface for Win NT & 2000
Gap handling : Appended to previous track
Used output format : User Defined Encoder
Selected bitrate : 320 kBit/s
Quality : High
Add ID3 tag : No
Command line compressor : C:\Program Files\FLAC\flac.exe
Additional command line options : -8 -A tukey(0.25) -A gauss(0.1875) -b 4096 -V -T "artist=%a" -T "title=%t" -T "album=%g" -T "date=%y" -T "tracknumber=%n" -T "genre=%m" %s
TOC of the extracted CD
Track | Start | Length | Start sector | End sector
---------------------------------------------------------
1 | 0:00.00 | 3:52.53 | 0 | 17452
2 | 3:52.53 | 4:04.38 | 17453 | 35790
3 | 7:57.16 | 4:40.47 | 35791 | 56837
4 | 12:37.63 | 4:07.01 | 56838 | 75363
5 | 16:44.64 | 2:58.14 | 75364 | 88727
6 | 19:43.03 | 2:44.40 | 88728 | 101067
7 | 22:27.43 | 3:55.02 | 101068 | 118694
8 | 26:22.45 | 3:42.09 | 118695 | 135353
9 | 30:04.54 | 2:28.70 | 135354 | 146523
10 | 32:33.49 | 3:02.14 | 146524 | 160187
11 | 35:35.63 | 1:58.49 | 160188 | 169086
12 | 37:34.37 | 3:18.40 | 169087 | 183976
13 | 40:53.02 | 3:55.30 | 183977 | 201631
14 | 44:48.32 | 2:56.04 | 201632 | 214835
15 | 47:44.36 | 4:47.45 | 214836 | 236405
16 | 52:32.06 | 3:15.42 | 236406 | 251072
17 | 55:47.48 | 2:48.29 | 251073 | 263701
Track 1
Filename E:\Muziek van Mark\_The Meteors\The Meteors - Kings of Psychobilly 5CD FLAC\CD2\01 The Meteors - I'm Just a Dog.wav
Pre-gap length 0:00:02.00
Peak level 100.0 %
Track quality 100.0 %
Test CRC D54EFE3A
Copy CRC D54EFE3A
Track not present in AccurateRip database
Copy OK
Track 2
Filename E:\Muziek van Mark\_The Meteors\The Meteors - Kings of Psychobilly 5CD FLAC\CD2\02 The Meteors - Michael Myers.wav
Pre-gap length 0:00:02.00
Peak level 100.0 %
Track quality 100.0 %
Test CRC 96403BEA
Copy CRC 96403BEA
Track not present in AccurateRip database
Copy OK
Track 3
Filename E:\Muziek van Mark\_The Meteors\The Meteors - Kings of Psychobilly 5CD FLAC\CD2\03 The Meteors - Only A Furry In My Heart.wav
Pre-gap length 0:00:02.00
Peak level 100.0 %
Track quality 100.0 %
Test CRC D87487A7
Copy CRC D87487A7
Track not present in AccurateRip database
Copy OK
Track 4
Filename E:\Muziek van Mark\_The Meteors\The Meteors - Kings of Psychobilly 5CD FLAC\CD2\04 The Meteors - Rhythm of The Bell.wav
Pre-gap length 0:00:02.00
Peak level 100.0 %
Track quality 100.0 %
Test CRC 78E3C716
Copy CRC 78E3C716
Track not present in AccurateRip database
Copy OK
Track 5
Filename E:\Muziek van Mark\_The Meteors\The Meteors - Kings of Psychobilly 5CD FLAC\CD2\05 The Meteors - Out Of Time.wav
Pre-gap length 0:00:02.00
Peak level 100.0 %
Track quality 100.0 %
Test CRC 417D9AFF
Copy CRC 417D9AFF
Track not present in AccurateRip database
Copy OK
Track 6
Filename E:\Muziek van Mark\_The Meteors\The Meteors - Kings of Psychobilly 5CD FLAC\CD2\06 The Meteors - Ain't Gonna Bring Me Down.wav
Pre-gap length 0:00:02.00
Peak level 100.0 %
Track quality 100.0 %
Test CRC 9DE86C10
Copy CRC 9DE86C10
Track not present in AccurateRip database
Copy OK
Track 7
Filename E:\Muziek van Mark\_The Meteors\The Meteors - Kings of Psychobilly 5CD FLAC\CD2\07 The Meteors - Take A Ride.wav
Pre-gap length 0:00:02.00
Peak level 100.0 %
Track quality 100.0 %
Test CRC EB5EF663
Copy CRC EB5EF663
Track not present in AccurateRip database
Copy OK
Track 8
Filename E:\Muziek van Mark\_The Meteors\The Meteors - Kings of Psychobilly 5CD FLAC\CD2\08 The Meteors - Just The Three Of Us.wav
Pre-gap length 0:00:02.00
Peak level 99.9 %
Track quality 100.0 %
Test CRC 625BC73E
Copy CRC 625BC73E
Track not present in AccurateRip database
Copy OK
Track 9
Filename E:\Muziek van Mark\_The Meteors\The Meteors - Kings of Psychobilly 5CD FLAC\CD2\09 The Meteors - I Bury The Living.wav
Pre-gap length 0:00:02.00
Peak level 100.0 %
Track quality 100.0 %
Test CRC ED098D13
Copy CRC ED098D13
Track not present in AccurateRip database
Copy OK
Track 10
Filename E:\Muziek van Mark\_The Meteors\The Meteors - Kings of Psychobilly 5CD FLAC\CD2\10 The Meteors - Sewertime Blues.wav
Pre-gap length 0:00:02.00
Peak level 100.0 %
Track quality 100.0 %
Test CRC 6FFC10AC
Copy CRC 6FFC10AC
Track not present in AccurateRip database
Copy OK
Track 11
Filename E:\Muziek van Mark\_The Meteors\The Meteors - Kings of Psychobilly 5CD FLAC\CD2\11 The Meteors - Mind Over Matter.wav
Pre-gap length 0:00:02.00
Peak level 97.9 %
Track quality 100.0 %
Test CRC 42FF5490
Copy CRC 42FF5490
Track not present in AccurateRip database
Copy OK
Track 12
Filename E:\Muziek van Mark\_The Meteors\The Meteors - Kings of Psychobilly 5CD FLAC\CD2\12 The Meteors - Here's Johnny.wav
Pre-gap length 0:00:02.00
Peak level 100.0 %
Track quality 100.0 %
Test CRC 8536CBA9
Copy CRC 8536CBA9
Track not present in AccurateRip database
Copy OK
Track 13
Filename E:\Muziek van Mark\_The Meteors\The Meteors - Kings of Psychobilly 5CD FLAC\CD2\13 The Meteors - Ain't Takin A Chance.wav
Pre-gap length 0:00:02.00
Peak level 100.0 %
Track quality 100.0 %
Test CRC 3BD0D7E5
Copy CRC 3BD0D7E5
Track not present in AccurateRip database
Copy OK
Track 14
Filename E:\Muziek van Mark\_The Meteors\The Meteors - Kings of Psychobilly 5CD FLAC\CD2\14 The Meteors - Midnite People.wav
Pre-gap length 0:00:02.00
Peak level 100.0 %
Track quality 100.0 %
Test CRC 2A734AAF
Copy CRC 2A734AAF
Track not present in AccurateRip database
Copy OK
Track 15
Filename E:\Muziek van Mark\_The Meteors\The Meteors - Kings of Psychobilly 5CD FLAC\CD2\15 The Meteors - Repo Man.wav
Pre-gap length 0:00:02.00
Peak level 100.0 %
Track quality 100.0 %
Test CRC C7839080
Copy CRC C7839080
Track not present in AccurateRip database
Copy OK
Track 16
Filename E:\Muziek van Mark\_The Meteors\The Meteors - Kings of Psychobilly 5CD FLAC\CD2\16 The Meteors - Low Living Daddy.wav
Pre-gap length 0:00:02.00
Peak level 100.0 %
Track quality 100.0 %
Test CRC 51160683
Copy CRC 51160683
Track not present in AccurateRip database
Copy OK
Track 17
Filename E:\Muziek van Mark\_The Meteors\The Meteors - Kings of Psychobilly 5CD FLAC\CD2\17 The Meteors - You Crack Me Up.wav
Pre-gap length 0:00:02.00
Peak level 100.0 %
Track quality 99.9 %
Test CRC C43BB16F
Copy CRC C43BB16F
Track not present in AccurateRip database
Copy OK
None of the tracks are present in the AccurateRip database
No errors occurred
End of status report

CUE

REM GENRE Psychobilly
REM DATE 2008
REM DISCID 040DBC11
REM COMMENT "ExactAudioCopy v0.99pb5"
FILE "01 The Meteors - I'm Just a Dog.wav" WAVE
TRACK 01 AUDIO
INDEX 01 00:00:00
TRACK 02 AUDIO
INDEX 00 03:50:53
FILE "02 The Meteors - Michael Myers.wav" WAVE
INDEX 01 00:00:00
TRACK 03 AUDIO
INDEX 00 04:02:38
FILE "03 The Meteors - Only A Furry In My Heart.wav" WAVE
INDEX 01 00:00:00
TRACK 04 AUDIO
INDEX 00 04:38:47
FILE "04 The Meteors - Rhythm of The Bell.wav" WAVE
INDEX 01 00:00:00
TRACK 05 AUDIO
INDEX 00 04:05:01
FILE "05 The Meteors - Out Of Time.wav" WAVE
INDEX 01 00:00:00
TRACK 06 AUDIO
INDEX 00 02:56:14
FILE "06 The Meteors - Ain't Gonna Bring Me Down.wav" WAVE
INDEX 01 00:00:00
TRACK 07 AUDIO
INDEX 00 02:42:40
FILE "07 The Meteors - Take A Ride.wav" WAVE
INDEX 01 00:00:00
TRACK 08 AUDIO
INDEX 00 03:53:02
FILE "08 The Meteors - Just The Three Of Us.wav" WAVE
INDEX 01 00:00:00
TRACK 09 AUDIO
INDEX 00 03:40:09
FILE "09 The Meteors - I Bury The Living.wav" WAVE
INDEX 01 00:00:00
TRACK 10 AUDIO
INDEX 00 02:26:70
FILE "10 The Meteors - Sewertime Blues.wav" WAVE
INDEX 01 00:00:00
TRACK 11 AUDIO
INDEX 00 03:00:14
FILE "11 The Meteors - Mind Over Matter.wav" WAVE
INDEX 01 00:00:00
TRACK 12 AUDIO
INDEX 00 01:56:49
FILE "12 The Meteors - Here's Johnny.wav" WAVE
INDEX 01 00:00:00
TRACK 13 AUDIO
INDEX 00 03:16:40
FILE "13 The Meteors - Ain't Takin A Chance.wav" WAVE
INDEX 01 00:00:00
TRACK 14 AUDIO
INDEX 00 03:53:30
FILE "14 The Meteors - Midnite People.wav" WAVE
INDEX 01 00:00:00
TRACK 15 AUDIO
INDEX 00 02:54:04
FILE "15 The Meteors - Repo Man.wav" WAVE
INDEX 01 00:00:00
TRACK 16 AUDIO
INDEX 00 04:45:45
FILE "16 The Meteors - Low Living Daddy.wav" WAVE
INDEX 01 00:00:00
TRACK 17 AUDIO
INDEX 00 03:13:42
FILE "17 The Meteors - You Crack Me Up.wav" WAVE
INDEX 01 00:00:00

CD3

Трэклист:
1. (00:03:27) The Meteors - I Go To Bed With The Undead
2. (00:02:54) The Meteors - Charlie, Johnny, Rawhead And Me
3. (00:03:30) The Meteors - Liars In Wait
4. (00:04:09) The Meteors - Spinebender
5. (00:03:41) The Meteors - I'm Invisiable Man
6. (00:03:43) The Meteors - Dance Crazy Baby
7. (00:03:43) The Meteors - Hell Ain't Hot Enough
8. (00:03:14) The Meteors - Brains As Well
9. (00:02:40) The Meteors - My Kind Of Rocking
10. (00:04:27) The Meteors - Chainsaw Boogie
11. (00:03:58) The Meteors - She's My Baby Again
12. (00:02:25) The Meteors - Yellow Zone
13. (00:03:17) The Meteors - Meet Me At The Morgue
14. (00:04:48) The Meteors - Disneyland

Лог EAC

Exact Audio Copy V0.99 prebeta 5 from 4. May 2009
EAC extraction logfile from 26. October 2009, 20:10
The Meteors / Kings of Psychobilly CD3
Used drive : HL-DT-STDVDRAM_GSA-H60N Adapter: 1 ID: 0
Read mode : Secure
Utilize accurate stream : Yes
Defeat audio cache : Yes
Make use of C2 pointers : No
Read offset correction : 667
Overread into Lead-In and Lead-Out : No
Fill up missing offset samples with silence : Yes
Delete leading and trailing silent blocks : No
Null samples used in CRC calculations : Yes
Used interface : Native Win32 interface for Win NT & 2000
Gap handling : Appended to previous track
Used output format : User Defined Encoder
Selected bitrate : 320 kBit/s
Quality : High
Add ID3 tag : No
Command line compressor : C:\Program Files\FLAC\flac.exe
Additional command line options : -8 -A tukey(0.25) -A gauss(0.1875) -b 4096 -V -T "artist=%a" -T "title=%t" -T "album=%g" -T "date=%y" -T "tracknumber=%n" -T "genre=%m" %s
TOC of the extracted CD
Track | Start | Length | Start sector | End sector
---------------------------------------------------------
1 | 0:00.00 | 3:26.69 | 0 | 15518
2 | 3:26.69 | 2:53.62 | 15519 | 28555
3 | 6:20.56 | 3:30.24 | 28556 | 44329
4 | 9:51.05 | 4:08.72 | 44330 | 63001
5 | 14:00.02 | 3:40.54 | 63002 | 79555
6 | 17:40.56 | 3:43.11 | 79556 | 96291
7 | 21:23.67 | 3:42.65 | 96292 | 113006
8 | 25:06.57 | 3:14.19 | 113007 | 127575
9 | 28:21.01 | 2:39.53 | 127576 | 139553
10 | 31:00.54 | 4:26.73 | 139554 | 159576
11 | 35:27.52 | 3:57.61 | 159577 | 177412
12 | 39:25.38 | 2:24.42 | 177413 | 188254
13 | 41:50.05 | 3:16.64 | 188255 | 203018
14 | 45:06.69 | 4:47.55 | 203019 | 224598
Track 1
Filename E:\Muziek van Mark\_The Meteors\The Meteors - Kings of Psychobilly 5CD FLAC\CD3\01 The Meteors - I Go To Bed With The Undead.wav
Pre-gap length 0:00:02.00
Peak level 100.0 %
Track quality 100.0 %
Test CRC 0F1E84B1
Copy CRC 0F1E84B1
Track not present in AccurateRip database
Copy OK
Track 2
Filename E:\Muziek van Mark\_The Meteors\The Meteors - Kings of Psychobilly 5CD FLAC\CD3\02 The Meteors - Charlie, Johnny, Rawhead And Me.wav
Pre-gap length 0:00:02.00
Peak level 100.0 %
Track quality 100.0 %
Test CRC CFDF7FDC
Copy CRC CFDF7FDC
Track not present in AccurateRip database
Copy OK
Track 3
Filename E:\Muziek van Mark\_The Meteors\The Meteors - Kings of Psychobilly 5CD FLAC\CD3\03 The Meteors - Liars In Wait.wav
Pre-gap length 0:00:02.00
Peak level 100.0 %
Track quality 100.0 %
Test CRC 8B39C879
Copy CRC 8B39C879
Track not present in AccurateRip database
Copy OK
Track 4
Filename E:\Muziek van Mark\_The Meteors\The Meteors - Kings of Psychobilly 5CD FLAC\CD3\04 The Meteors - Spinebender.wav
Pre-gap length 0:00:01.98
Peak level 100.0 %
Track quality 100.0 %
Test CRC 2CD3FE2D
Copy CRC 2CD3FE2D
Track not present in AccurateRip database
Copy OK
Track 5
Filename E:\Muziek van Mark\_The Meteors\The Meteors - Kings of Psychobilly 5CD FLAC\CD3\05 The Meteors - I'm Invisiable Man.wav
Pre-gap length 0:00:02.00
Peak level 99.9 %
Track quality 100.0 %
Test CRC 3BB353DE
Copy CRC 3BB353DE
Track not present in AccurateRip database
Copy OK
Track 6
Filename E:\Muziek van Mark\_The Meteors\The Meteors - Kings of Psychobilly 5CD FLAC\CD3\06 The Meteors - Dance Crazy Baby.wav
Pre-gap length 0:00:02.00
Peak level 100.0 %
Track quality 99.9 %
Test CRC 483C8F82
Copy CRC 483C8F82
Track not present in AccurateRip database
Copy OK
Track 7
Filename E:\Muziek van Mark\_The Meteors\The Meteors - Kings of Psychobilly 5CD FLAC\CD3\07 The Meteors - Hell Ain't Hot Enough.wav
Pre-gap length 0:00:02.00
Peak level 100.0 %
Track quality 100.0 %
Test CRC 956D892E
Copy CRC 956D892E
Track not present in AccurateRip database
Copy OK
Track 8
Filename E:\Muziek van Mark\_The Meteors\The Meteors - Kings of Psychobilly 5CD FLAC\CD3\08 The Meteors - Brains As Well.wav
Pre-gap length 0:00:02.00
Peak level 100.0 %
Track quality 99.9 %
Test CRC CC2EC68C
Copy CRC CC2EC68C
Track not present in AccurateRip database
Copy OK
Track 9
Filename E:\Muziek van Mark\_The Meteors\The Meteors - Kings of Psychobilly 5CD FLAC\CD3\09 The Meteors - My Kind Of Rocking.wav
Pre-gap length 0:00:02.00
Peak level 100.0 %
Track quality 99.9 %
Test CRC 3B5EEBAD
Copy CRC 3B5EEBAD
Track not present in AccurateRip database
Copy OK
Track 10
Filename E:\Muziek van Mark\_The Meteors\The Meteors - Kings of Psychobilly 5CD FLAC\CD3\10 The Meteors - Chainsaw Boogie.wav
Pre-gap length 0:00:02.00
Peak level 100.0 %
Track quality 99.9 %
Test CRC 156B2C61
Copy CRC 156B2C61
Track not present in AccurateRip database
Copy OK
Track 11
Filename E:\Muziek van Mark\_The Meteors\The Meteors - Kings of Psychobilly 5CD FLAC\CD3\11 The Meteors - She's My Baby Again.wav
Pre-gap length 0:00:02.00
Peak level 96.4 %
Track quality 100.0 %
Test CRC 75ED750F
Copy CRC 75ED750F
Track not present in AccurateRip database
Copy OK
Track 12
Filename E:\Muziek van Mark\_The Meteors\The Meteors - Kings of Psychobilly 5CD FLAC\CD3\12 The Meteors - Yellow Zone.wav
Pre-gap length 0:00:02.00
Peak level 100.0 %
Track quality 100.0 %
Test CRC 322EDA19
Copy CRC 322EDA19
Track not present in AccurateRip database
Copy OK
Track 13
Filename E:\Muziek van Mark\_The Meteors\The Meteors - Kings of Psychobilly 5CD FLAC\CD3\13 The Meteors - Meet Me At The Morgue.wav
Pre-gap length 0:00:02.00
Peak level 100.0 %
Track quality 100.0 %
Test CRC EC4174D9
Copy CRC EC4174D9
Track not present in AccurateRip database
Copy OK
Track 14
Filename E:\Muziek van Mark\_The Meteors\The Meteors - Kings of Psychobilly 5CD FLAC\CD3\14 The Meteors - Disneyland.wav
Pre-gap length 0:00:02.00
Peak level 100.0 %
Track quality 100.0 %
Test CRC 26E74AC1
Copy CRC 26E74AC1
Track not present in AccurateRip database
Copy OK
None of the tracks are present in the AccurateRip database
No errors occurred
End of status report

CUE

REM GENRE Psychobilly
REM DATE 2008
REM DISCID B60BB20E
REM COMMENT "ExactAudioCopy v0.99pb5"
FILE "01 The Meteors - I Go To Bed With The Undead.wav" WAVE
TRACK 01 AUDIO
INDEX 01 00:00:00
TRACK 02 AUDIO
INDEX 00 03:24:69
FILE "02 The Meteors - Charlie, Johnny, Rawhead And Me.wav" WAVE
INDEX 01 00:00:00
TRACK 03 AUDIO
INDEX 00 02:51:62
FILE "03 The Meteors - Liars In Wait.wav" WAVE
INDEX 01 00:00:00
TRACK 04 AUDIO
INDEX 00 03:28:25
FILE "04 The Meteors - Spinebender.wav" WAVE
INDEX 01 00:00:00
TRACK 05 AUDIO
INDEX 00 04:06:72
FILE "05 The Meteors - I'm Invisiable Man.wav" WAVE
INDEX 01 00:00:00
TRACK 06 AUDIO
INDEX 00 03:38:54
FILE "06 The Meteors - Dance Crazy Baby.wav" WAVE
INDEX 01 00:00:00
TRACK 07 AUDIO
INDEX 00 03:41:11
FILE "07 The Meteors - Hell Ain't Hot Enough.wav" WAVE
INDEX 01 00:00:00
TRACK 08 AUDIO
INDEX 00 03:40:65
FILE "08 The Meteors - Brains As Well.wav" WAVE
INDEX 01 00:00:00
TRACK 09 AUDIO
INDEX 00 03:12:19
FILE "09 The Meteors - My Kind Of Rocking.wav" WAVE
INDEX 01 00:00:00
TRACK 10 AUDIO
INDEX 00 02:37:53
FILE "10 The Meteors - Chainsaw Boogie.wav" WAVE
INDEX 01 00:00:00
TRACK 11 AUDIO
INDEX 00 04:24:73
FILE "11 The Meteors - She's My Baby Again.wav" WAVE
INDEX 01 00:00:00
TRACK 12 AUDIO
INDEX 00 03:55:61
FILE "12 The Meteors - Yellow Zone.wav" WAVE
INDEX 01 00:00:00
TRACK 13 AUDIO
INDEX 00 02:22:42
FILE "13 The Meteors - Meet Me At The Morgue.wav" WAVE
INDEX 01 00:00:00
TRACK 14 AUDIO
INDEX 00 03:14:64
FILE "14 The Meteors - Disneyland.wav" WAVE
INDEX 01 00:00:00

CD4

Трэклист:
1. (00:01:39) The Meteors - Ex Men Boogie
2. (00:02:29) The Meteors - Night of The Werewolf
3. (00:02:34) The Meteors - The Return Of Ethel Merman
4. (00:03:50) The Meteors - Oxygen Dog
5. (00:03:34) The Meteors - Ma Johnson Meets The Razorback
6. (00:04:12) The Meteors - Surf Mad Pig
7. (00:04:44) The Meteors - Meteors Vs The World
8. (00:04:33) The Meteors - Doing The Lords Work
9. (00:02:58) The Meteors - Corpse Grinder
10. (00:03:39) The Meteors - Go Buddy Go
11. (00:04:14) The Meteors - If You Don't Wanna Fuck Me Baby
12. (00:02:35) The Meteors - Psycho Kat
13. (00:03:51) The Meteors - Halloween Scream
14. (00:03:47) The Meteors - Kat Killer
15. (00:03:41) The Meteors - Straight Down To Hell

Лог EAC

Exact Audio Copy V0.99 prebeta 5 from 4. May 2009
EAC extraction logfile from 26. October 2009, 20:35
The Meteors / Kings of Psychobilly CD4
Used drive : HL-DT-STDVDRAM_GSA-H60N Adapter: 1 ID: 0
Read mode : Secure
Utilize accurate stream : Yes
Defeat audio cache : Yes
Make use of C2 pointers : No
Read offset correction : 667
Overread into Lead-In and Lead-Out : No
Fill up missing offset samples with silence : Yes
Delete leading and trailing silent blocks : No
Null samples used in CRC calculations : Yes
Used interface : Native Win32 interface for Win NT & 2000
Gap handling : Appended to previous track
Used output format : User Defined Encoder
Selected bitrate : 320 kBit/s
Quality : High
Add ID3 tag : No
Command line compressor : C:\Program Files\FLAC\flac.exe
Additional command line options : -8 -A tukey(0.25) -A gauss(0.1875) -b 4096 -V -T "artist=%a" -T "title=%t" -T "album=%g" -T "date=%y" -T "tracknumber=%n" -T "genre=%m" %s
TOC of the extracted CD
Track | Start | Length | Start sector | End sector
---------------------------------------------------------
1 | 0:00.00 | 1:39.20 | 0 | 7444
2 | 1:39.20 | 2:29.30 | 7445 | 18649
3 | 4:08.50 | 2:34.03 | 18650 | 30202
4 | 6:42.53 | 3:50.08 | 30203 | 47460
5 | 10:32.61 | 3:33.57 | 47461 | 63492
6 | 14:06.43 | 4:11.63 | 63493 | 82380
7 | 18:18.31 | 4:43.59 | 82381 | 103664
8 | 23:02.15 | 4:33.22 | 103665 | 124161
9 | 27:35.37 | 2:58.35 | 124162 | 137546
10 | 30:33.72 | 3:38.59 | 137547 | 153955
11 | 34:12.56 | 4:13.72 | 153956 | 173002
12 | 38:26.53 | 2:35.32 | 173003 | 184659
13 | 41:02.10 | 3:50.40 | 184660 | 201949
14 | 44:52.50 | 3:47.34 | 201950 | 219008
15 | 48:40.09 | 3:41.11 | 219009 | 235594
Track 1
Filename E:\Muziek van Mark\_The Meteors\The Meteors - Kings of Psychobilly 5CD FLAC\CD4\01 The Meteors - Ex Men Boogie.wav
Pre-gap length 0:00:02.00
Peak level 100.0 %
Track quality 99.8 %
Test CRC 3C0D4950
Copy CRC 3C0D4950
Track not present in AccurateRip database
Copy OK
Track 2
Filename E:\Muziek van Mark\_The Meteors\The Meteors - Kings of Psychobilly 5CD FLAC\CD4\02 The Meteors - Night of The Werewolf.wav
Pre-gap length 0:00:02.00
Peak level 100.0 %
Track quality 99.9 %
Test CRC A3578A3B
Copy CRC A3578A3B
Track not present in AccurateRip database
Copy OK
Track 3
Filename E:\Muziek van Mark\_The Meteors\The Meteors - Kings of Psychobilly 5CD FLAC\CD4\03 The Meteors - The Return Of Ethel Merman.wav
Pre-gap length 0:00:02.00
Peak level 100.0 %
Track quality 99.9 %
Test CRC 12AE29B2
Copy CRC 12AE29B2
Track not present in AccurateRip database
Copy OK
Track 4
Filename E:\Muziek van Mark\_The Meteors\The Meteors - Kings of Psychobilly 5CD FLAC\CD4\04 The Meteors - Oxygen Dog.wav
Pre-gap length 0:00:02.00
Peak level 100.0 %
Track quality 99.9 %
Test CRC 4CB3A695
Copy CRC 4CB3A695
Track not present in AccurateRip database
Copy OK
Track 5
Filename E:\Muziek van Mark\_The Meteors\The Meteors - Kings of Psychobilly 5CD FLAC\CD4\05 The Meteors - Ma Johnson Meets The Razorback.wav
Pre-gap length 0:00:02.00
Peak level 100.0 %
Track quality 100.0 %
Test CRC 8C71578F
Copy CRC 8C71578F
Track not present in AccurateRip database
Copy OK
Track 6
Filename E:\Muziek van Mark\_The Meteors\The Meteors - Kings of Psychobilly 5CD FLAC\CD4\06 The Meteors - Surf Mad Pig.wav
Pre-gap length 0:00:02.00
Peak level 100.0 %
Track quality 100.0 %
Test CRC A2F71C1A
Copy CRC A2F71C1A
Track not present in AccurateRip database
Copy OK
Track 7
Filename E:\Muziek van Mark\_The Meteors\The Meteors - Kings of Psychobilly 5CD FLAC\CD4\07 The Meteors - Meteors Vs The World.wav
Pre-gap length 0:00:02.00
Peak level 100.0 %
Track quality 100.0 %
Test CRC 9FF7E6EE
Copy CRC 9FF7E6EE
Track not present in AccurateRip database
Copy OK
Track 8
Filename E:\Muziek van Mark\_The Meteors\The Meteors - Kings of Psychobilly 5CD FLAC\CD4\08 The Meteors - Doing The Lords Work.wav
Pre-gap length 0:00:02.00
Peak level 100.0 %
Track quality 99.9 %
Test CRC B8E1F9C7
Copy CRC B8E1F9C7
Track not present in AccurateRip database
Copy OK
Track 9
Filename E:\Muziek van Mark\_The Meteors\The Meteors - Kings of Psychobilly 5CD FLAC\CD4\09 The Meteors - Corpse Grinder.wav
Pre-gap length 0:00:02.06
Peak level 100.0 %
Track quality 100.0 %
Test CRC 9524D3A7
Copy CRC 9524D3A7
Track not present in AccurateRip database
Copy OK
Track 10
Filename E:\Muziek van Mark\_The Meteors\The Meteors - Kings of Psychobilly 5CD FLAC\CD4\10 The Meteors - Go Buddy Go.wav
Pre-gap length 0:00:02.00
Peak level 100.0 %
Track quality 100.0 %
Test CRC BE9C049C
Copy CRC BE9C049C
Track not present in AccurateRip database
Copy OK
Track 11
Filename E:\Muziek van Mark\_The Meteors\The Meteors - Kings of Psychobilly 5CD FLAC\CD4\11 The Meteors - If You Don't Wanna Fuck Me Baby.wav
Pre-gap length 0:00:02.20
Peak level 100.0 %
Track quality 100.0 %
Test CRC 808BEB94
Copy CRC 808BEB94
Track not present in AccurateRip database
Copy OK
Track 12
Filename E:\Muziek van Mark\_The Meteors\The Meteors - Kings of Psychobilly 5CD FLAC\CD4\12 The Meteors - Psycho Kat.wav
Pre-gap length 0:00:02.00
Peak level 100.0 %
Track quality 100.0 %
Test CRC A112AC15
Copy CRC A112AC15
Track not present in AccurateRip database
Copy OK
Track 13
Filename E:\Muziek van Mark\_The Meteors\The Meteors - Kings of Psychobilly 5CD FLAC\CD4\13 The Meteors - Halloween Scream.wav
Pre-gap length 0:00:02.00
Peak level 100.0 %
Track quality 100.0 %
Test CRC 6ACF3D59
Copy CRC 6ACF3D59
Track not present in AccurateRip database
Copy OK
Track 14
Filename E:\Muziek van Mark\_The Meteors\The Meteors - Kings of Psychobilly 5CD FLAC\CD4\14 The Meteors - Kat Killer.wav
Pre-gap length 0:00:02.42
Peak level 100.0 %
Track quality 99.9 %
Test CRC D0E9C27F
Copy CRC D0E9C27F
Track not present in AccurateRip database
Copy OK
Track 15
Filename E:\Muziek van Mark\_The Meteors\The Meteors - Kings of Psychobilly 5CD FLAC\CD4\15 The Meteors - Straight Down To Hell.wav
Pre-gap length 0:00:02.00
Peak level 100.0 %
Track quality 100.0 %
Test CRC D4A21EF5
Copy CRC D4A21EF5
Track not present in AccurateRip database
Copy OK
None of the tracks are present in the AccurateRip database
No errors occurred
End of status report

CUE

REM GENRE Psychobilly
REM DATE 2008
REM DISCID B60C450F
REM COMMENT "ExactAudioCopy v0.99pb5"
FILE "01 The Meteors - Ex Men Boogie.wav" WAVE
TRACK 01 AUDIO
INDEX 01 00:00:00
TRACK 02 AUDIO
INDEX 00 01:37:20
FILE "02 The Meteors - Night of The Werewolf.wav" WAVE
INDEX 01 00:00:00
TRACK 03 AUDIO
INDEX 00 02:27:30
FILE "03 The Meteors - The Return Of Ethel Merman.wav" WAVE
INDEX 01 00:00:00
TRACK 04 AUDIO
INDEX 00 02:32:03
FILE "04 The Meteors - Oxygen Dog.wav" WAVE
INDEX 01 00:00:00
TRACK 05 AUDIO
INDEX 00 03:48:08
FILE "05 The Meteors - Ma Johnson Meets The Razorback.wav" WAVE
INDEX 01 00:00:00
TRACK 06 AUDIO
INDEX 00 03:31:57
FILE "06 The Meteors - Surf Mad Pig.wav" WAVE
INDEX 01 00:00:00
TRACK 07 AUDIO
INDEX 00 04:09:63
FILE "07 The Meteors - Meteors Vs The World.wav" WAVE
INDEX 01 00:00:00
TRACK 08 AUDIO
INDEX 00 04:41:59
FILE "08 The Meteors - Doing The Lords Work.wav" WAVE
INDEX 01 00:00:00
TRACK 09 AUDIO
INDEX 00 04:31:17
FILE "09 The Meteors - Corpse Grinder.wav" WAVE
INDEX 01 00:00:00
TRACK 10 AUDIO
INDEX 00 02:56:35
FILE "10 The Meteors - Go Buddy Go.wav" WAVE
INDEX 01 00:00:00
TRACK 11 AUDIO
INDEX 00 03:36:44
FILE "11 The Meteors - If You Don't Wanna Fuck Me Baby.wav" WAVE
INDEX 01 00:00:00
TRACK 12 AUDIO
INDEX 00 04:11:72
FILE "12 The Meteors - Psycho Kat.wav" WAVE
INDEX 01 00:00:00
TRACK 13 AUDIO
INDEX 00 02:33:32
FILE "13 The Meteors - Halloween Scream.wav" WAVE
INDEX 01 00:00:00
TRACK 14 AUDIO
INDEX 00 03:48:08
FILE "14 The Meteors - Kat Killer.wav" WAVE
INDEX 01 00:00:00
TRACK 15 AUDIO
INDEX 00 03:45:34
FILE "15 The Meteors - Straight Down To Hell.wav" WAVE
INDEX 01 00:00:00

CD5

Трэклист:
1. (00:03:14) The Meteors - Slowdown You Grave Robbin Bastard
2. (00:03:16) The Meteors - Get Out Of My Way
3. (00:05:20) The Meteors - Death Dance 2000
4. (00:02:46) The Meteors - Give The Devil His Due
5. (00:03:46) The Meteors - Baby's Got A Flame Thrower
6. (00:03:09) The Meteors - You Don't Know Me Very Well
7. (00:04:23) The Meteors - Execution Song
8. (00:04:29) The Meteors - Wanna Make A Monster
9. (00:03:48) The Meteors - Freak
10. (00:03:56) The Meteors - Crawling
11. (00:03:50) The Meteors - King of The Mutilators
12. (00:02:59) The Meteors - F**K Off And Die
13. (00:04:08) The Meteors - Psycho Down
14. (00:03:54) The Meteors - Papa Jupe
15. (00:04:07) The Meteors - You Ain't Right
16. (00:05:09) The Meteors - The Loneliness Of A Long Distance Killer
17. (00:03:39) The Meteors - These Evil Things
18. (00:04:25) The Meteors - Powder, Pain And Misery
19. (00:03:36) The Meteors - The Phantom Rider

Лог EAC

Exact Audio Copy V0.99 prebeta 5 from 4. May 2009
EAC extraction logfile from 26. October 2009, 21:16
The Meteors / Kings of Psychobilly CD5
Used drive : HL-DT-STDVDRAM_GSA-H60N Adapter: 1 ID: 0
Read mode : Secure
Utilize accurate stream : Yes
Defeat audio cache : Yes
Make use of C2 pointers : No
Read offset correction : 667
Overread into Lead-In and Lead-Out : No
Fill up missing offset samples with silence : Yes
Delete leading and trailing silent blocks : No
Null samples used in CRC calculations : Yes
Used interface : Native Win32 interface for Win NT & 2000
Gap handling : Appended to previous track
Used output format : User Defined Encoder
Selected bitrate : 320 kBit/s
Quality : High
Add ID3 tag : No
Command line compressor : C:\Program Files\FLAC\flac.exe
Additional command line options : -8 -A tukey(0.25) -A gauss(0.1875) -b 4096 -V -T "artist=%a" -T "title=%t" -T "album=%g" -T "date=%y" -T "tracknumber=%n" -T "genre=%m" %s
TOC of the extracted CD
Track | Start | Length | Start sector | End sector
---------------------------------------------------------
1 | 0:00.00 | 3:13.38 | 0 | 14512
2 | 3:13.38 | 3:15.38 | 14513 | 29175
3 | 6:29.01 | 5:19.66 | 29176 | 53166
4 | 11:48.67 | 2:45.73 | 53167 | 65614
5 | 14:34.65 | 3:45.46 | 65615 | 82535
6 | 18:20.36 | 3:09.18 | 82536 | 96728
7 | 21:29.54 | 4:22.62 | 96729 | 116440
8 | 25:52.41 | 4:29.09 | 116441 | 136624
9 | 30:21.50 | 3:48.26 | 136625 | 153750
10 | 34:10.01 | 3:55.72 | 153751 | 171447
11 | 38:05.73 | 3:49.66 | 171448 | 188688
12 | 41:55.64 | 2:58.66 | 188689 | 202104
13 | 44:54.55 | 4:08.02 | 202105 | 220706
14 | 49:02.57 | 3:53.55 | 220707 | 238236
15 | 52:56.37 | 4:07.10 | 238237 | 256771
16 | 57:03.47 | 5:09.37 | 256772 | 279983
17 | 62:13.09 | 3:38.60 | 279984 | 296393
18 | 65:51.69 | 4:25.03 | 296394 | 316271
19 | 70:16.72 | 3:35.74 | 316272 | 332470
Track 1
Filename E:\Muziek van Mark\_The Meteors\The Meteors - Kings of Psychobilly 5CD FLAC\CD5\01 The Meteors - Slowdown You Grave Robbin Bastard.wav
Pre-gap length 0:00:02.00
Peak level 100.0 %
Track quality 100.0 %
Test CRC A06FA93A
Copy CRC A06FA93A
Track not present in AccurateRip database
Copy OK
Track 2
Filename E:\Muziek van Mark\_The Meteors\The Meteors - Kings of Psychobilly 5CD FLAC\CD5\02 The Meteors - Get Out Of My Way.wav
Pre-gap length 0:00:02.01
Peak level 100.0 %
Track quality 100.0 %
Test CRC 8C242889
Copy CRC 8C242889
Track not present in AccurateRip database
Copy OK
Track 3
Filename E:\Muziek van Mark\_The Meteors\The Meteors - Kings of Psychobilly 5CD FLAC\CD5\03 The Meteors - Death Dance 2000.wav
Pre-gap length 0:00:01.94
Peak level 98.3 %
Track quality 100.0 %
Test CRC 92811908
Copy CRC 92811908
Track not present in AccurateRip database
Copy OK
Track 4
Filename E:\Muziek van Mark\_The Meteors\The Meteors - Kings of Psychobilly 5CD FLAC\CD5\04 The Meteors - Give The Devil His Due.wav
Pre-gap length 0:00:02.17
Peak level 96.4 %
Track quality 100.0 %
Test CRC B47388B3
Copy CRC B47388B3
Track not present in AccurateRip database
Copy OK
Track 5
Filename E:\Muziek van Mark\_The Meteors\The Meteors - Kings of Psychobilly 5CD FLAC\CD5\05 The Meteors - Baby's Got A Flame Thrower.wav
Pre-gap length 0:00:01.92
Peak level 99.9 %
Track quality 100.0 %
Test CRC 062A8E8B
Copy CRC 062A8E8B
Track not present in AccurateRip database
Copy OK
Track 6
Filename E:\Muziek van Mark\_The Meteors\The Meteors - Kings of Psychobilly 5CD FLAC\CD5\06 The Meteors - You Don't Know Me Very Well.wav
Pre-gap length 0:00:01.96
Peak level 99.9 %
Track quality 99.9 %
Test CRC EC6299EC
Copy CRC EC6299EC
Track not present in AccurateRip database
Copy OK
Track 7
Filename E:\Muziek van Mark\_The Meteors\The Meteors - Kings of Psychobilly 5CD FLAC\CD5\07 The Meteors - Execution Song.wav
Pre-gap length 0:00:01.88
Peak level 100.0 %
Track quality 100.0 %
Test CRC 8F3ECAF7
Copy CRC 8F3ECAF7
Track not present in AccurateRip database
Copy OK
Track 8
Filename E:\Muziek van Mark\_The Meteors\The Meteors - Kings of Psychobilly 5CD FLAC\CD5\08 The Meteors - Wanna Make A Monster.wav
Pre-gap length 0:00:02.00
Peak level 99.9 %
Track quality 100.0 %
Test CRC 0F9B608A
Copy CRC 0F9B608A
Track not present in AccurateRip database
Copy OK
Track 9
Filename E:\Muziek van Mark\_The Meteors\The Meteors - Kings of Psychobilly 5CD FLAC\CD5\09 The Meteors - Freak.wav
Pre-gap length 0:00:02.00
Peak level 100.0 %
Track quality 100.0 %
Test CRC 91382BDD
Copy CRC 91382BDD
Track not present in AccurateRip database
Copy OK
Track 10
Filename E:\Muziek van Mark\_The Meteors\The Meteors - Kings of Psychobilly 5CD FLAC\CD5\10 The Meteors - Crawling.wav
Pre-gap length 0:00:02.00
Peak level 100.0 %
Track quality 100.0 %
Test CRC 127AAA72
Copy CRC 127AAA72
Track not present in AccurateRip database
Copy OK
Track 11
Filename E:\Muziek van Mark\_The Meteors\The Meteors - Kings of Psychobilly 5CD FLAC\CD5\11 The Meteors - King of The Mutilators.wav
Pre-gap length 0:00:02.00
Peak level 100.0 %
Track quality 100.0 %
Test CRC 45DDEE89
Copy CRC 45DDEE89
Track not present in AccurateRip database
Copy OK
Track 12
Filename E:\Muziek van Mark\_The Meteors\The Meteors - Kings of Psychobilly 5CD FLAC\CD5\12 The Meteors - FxxK Off And Die.wav
Pre-gap length 0:00:02.08
Peak level 99.9 %
Track quality 100.0 %
Test CRC CFFD5DB2
Copy CRC CFFD5DB2
Track not present in AccurateRip database
Copy OK
Track 13
Filename E:\Muziek van Mark\_The Meteors\The Meteors - Kings of Psychobilly 5CD FLAC\CD5\13 The Meteors - Psycho Down.wav
Pre-gap length 0:00:02.00
Peak level 100.0 %
Track quality 99.9 %
Test CRC A18B7D46
Copy CRC A18B7D46
Track not present in AccurateRip database
Copy OK
Track 14
Filename E:\Muziek van Mark\_The Meteors\The Meteors - Kings of Psychobilly 5CD FLAC\CD5\14 The Meteors - Papa Jupe.wav
Pre-gap length 0:00:02.00
Peak level 100.0 %
Track quality 100.0 %
Test CRC 5450DBB5
Copy CRC 5450DBB5
Track not present in AccurateRip database
Copy OK
Track 15
Filename E:\Muziek van Mark\_The Meteors\The Meteors - Kings of Psychobilly 5CD FLAC\CD5\15 The Meteors - You Ain't Right.wav
Pre-gap length 0:00:02.00
Peak level 96.6 %
Track quality 100.0 %
Test CRC 1B727674
Copy CRC 1B727674
Track not present in AccurateRip database
Copy OK
Track 16
Filename E:\Muziek van Mark\_The Meteors\The Meteors - Kings of Psychobilly 5CD FLAC\CD5\16 The Meteors - The Loneliness Of A Long Distance Killer.wav
Pre-gap length 0:00:02.00
Peak level 100.0 %
Track quality 99.9 %
Test CRC 864AAC5C
Copy CRC 864AAC5C
Track not present in AccurateRip database
Copy OK
Track 17
Filename E:\Muziek van Mark\_The Meteors\The Meteors - Kings of Psychobilly 5CD FLAC\CD5\17 The Meteors - These Evil Things.wav
Pre-gap length 0:00:01.98
Peak level 100.0 %
Track quality 99.9 %
Test CRC F230BD4C
Copy CRC F230BD4C
Track not present in AccurateRip database
Copy OK
Track 18
Filename E:\Muziek van Mark\_The Meteors\The Meteors - Kings of Psychobilly 5CD FLAC\CD5\18 The Meteors - Powder, Pain And Misery.wav
Pre-gap length 0:00:02.09
Peak level 100.0 %
Track quality 100.0 %
Test CRC C38458B2
Copy CRC C38458B2
Track not present in AccurateRip database
Copy OK
Track 19
Filename E:\Muziek van Mark\_The Meteors\The Meteors - Kings of Psychobilly 5CD FLAC\CD5\19 The Meteors - The Phantom Rider.wav
Pre-gap length 0:00:02.00
Peak level 100.0 %
Track quality 100.0 %
Test CRC 49FFFCA8
Copy CRC 49FFFCA8
Track not present in AccurateRip database
Copy OK
None of the tracks are present in the AccurateRip database
No errors occurred
End of status report

CUE

REM GENRE Psychobilly
REM DATE 2008
REM DISCID 15115013
REM COMMENT "ExactAudioCopy v0.99pb5"
FILE "01 The Meteors - Slowdown You Grave Robbin Bastard.wav" WAVE
TRACK 01 AUDIO
INDEX 01 00:00:00
TRACK 02 AUDIO
INDEX 00 03:11:37
FILE "02 The Meteors - Get Out Of My Way.wav" WAVE
INDEX 01 00:00:00
TRACK 03 AUDIO
INDEX 00 03:13:42
FILE "03 The Meteors - Death Dance 2000.wav" WAVE
INDEX 01 00:00:00
TRACK 04 AUDIO
INDEX 00 05:17:53
FILE "04 The Meteors - Give The Devil His Due.wav" WAVE
INDEX 01 00:00:00
TRACK 05 AUDIO
INDEX 00 02:44:04
FILE "05 The Meteors - Baby's Got A Flame Thrower.wav" WAVE
INDEX 01 00:00:00
TRACK 06 AUDIO
INDEX 00 03:43:49
FILE "06 The Meteors - You Don't Know Me Very Well.wav" WAVE
INDEX 01 00:00:00
TRACK 07 AUDIO
INDEX 00 03:07:27
FILE "07 The Meteors - Execution Song.wav" WAVE
INDEX 01 00:00:00
TRACK 08 AUDIO
INDEX 00 04:20:62
FILE "08 The Meteors - Wanna Make A Monster.wav" WAVE
INDEX 01 00:00:00
TRACK 09 AUDIO
INDEX 00 04:27:09
FILE "09 The Meteors - Freak.wav" WAVE
INDEX 01 00:00:00
TRACK 10 AUDIO
INDEX 00 03:46:26
FILE "10 The Meteors - Crawling.wav" WAVE
INDEX 01 00:00:00
TRACK 11 AUDIO
INDEX 00 03:53:72
FILE "11 The Meteors - King of The Mutilators.wav" WAVE
INDEX 01 00:00:00
TRACK 12 AUDIO
INDEX 00 03:47:60
FILE "12 The Meteors - FxxK Off And Die.wav" WAVE
INDEX 01 00:00:00
TRACK 13 AUDIO
INDEX 00 02:56:66
FILE "13 The Meteors - Psycho Down.wav" WAVE
INDEX 01 00:00:00
TRACK 14 AUDIO
INDEX 00 04:06:02
FILE "14 The Meteors - Papa Jupe.wav" WAVE
INDEX 01 00:00:00
TRACK 15 AUDIO
INDEX 00 03:51:55
FILE "15 The Meteors - You Ain't Right.wav" WAVE
INDEX 01 00:00:00
TRACK 16 AUDIO
INDEX 00 04:05:10
FILE "16 The Meteors - The Loneliness Of A Long Distance Killer.wav" WAVE
INDEX 01 00:00:00
TRACK 17 AUDIO
INDEX 00 05:07:38
FILE "17 The Meteors - These Evil Things.wav" WAVE
INDEX 01 00:00:00
TRACK 18 AUDIO
INDEX 00 03:36:53
FILE "18 The Meteors - Powder, Pain And Misery.wav" WAVE
INDEX 01 00:00:00
TRACK 19 AUDIO
INDEX 00 04:23:03
FILE "19 The Meteors - The Phantom Rider.wav" WAVE
INDEX 01 00:00:00
[erzsebet.org].t35039.torrent 
Торрент: Зарегистрирован [ 2019-03-15 03:03 ]

Скачать .torrent

Скачать

25 KB

Статус: проверено
Скачан: 1 раз
Размер: 1,84 GB
Поблагодарили: 0  Спасибо
terms.php
[Профиль]  [ЛС] 
Показать сообщения:    
Ответить на тему

Текущее время: 20-Мар 15:12

Часовой пояс: UTC + 3



Вы не можете начинать темы
Вы не можете отвечать на сообщения
Вы не можете редактировать свои сообщения
Вы не можете удалять свои сообщения
Вы не можете голосовать в опросах
Вы не можете прикреплять файлы к сообщениям
Вы можете скачивать файлы