(Psychobilly) The Meteors - No Surrender (Japan press,JICK-89596) - 1995, FLAC (image+.cue), lossless

Ответить на тему
Статистика раздачи
Размер:  381 MB   |    Зарегистрирован:  5 дней   |    Скачан:  1 раз

Полного источника не было: 4 дня

 
     
 
 
 
Автор Сообщение

erzsebet ®

Стаж: 1 год 11 месяцев

Сообщений: 31247

Откуда: Hungary

Создавать темы 15-Мар-2019 04:03  |  Сменить автора

[Цитировать] 

The Meteors / No Surrender (Japan press,JICK-89596)
Жанр: Psychobilly
Страна-производитель диска: Japan
Год издания диска: 1995
Издатель (лейбл): Jimco Records
Номер по каталогу: JICK-89596
Страна: United Kingdom
Аудиокодек: FLAC (*.flac)
Тип рипа: image+.cue
Битрейт аудио: lossless
Продолжительность: 57:56
Наличие сканов в содержимом раздачи: да
Треклист:
1. Hell & Damnation (meteors won't die) (4:05)
2. Raging thunder (3:43)
3. Petrified (3:01)
4. How mad is max? (4:05)
5. (K) is for chaos (4:06)
6. Headhunters (4:24)
7. Midnite train (3:38)
8. Awake with the wolf (3:38)
9. Hell ain't hot enough (for me) (3:27)
10. Voodoowedo (4:37)
11. Ride bastardos ride (2:48)
12. No surrender (4:27)
13. Chainsaw Boogie (5:26)
14. A very handy man indeed (6:53)

Лог создания рипа

Exact Audio Copy V0.99 prebeta 5 from 4. May 2009
Отчёт EAC об извлечении, выполненном 15. декабря 2011, 7:15
The Meteors / No Surrender (JICK-89596)
Дисковод: MATSHITABD-MLT UJ-210S Adapter: 0 ID: 0
Режим чтения : Достоверность
Использование точного потока : Да
Отключение кэша аудио : Да
Использование указателей C2 : Нет
Коррекция смещения при чтении : 102
Способность читать области Lead-in и Lead-out : Нет
Заполнение пропущенных сэмплов тишиной : Да
Удаление блоков с тишиной в начале и конце : Нет
При вычислениях CRC использовались нулевые сэмплы : Да
Интерфейс : Встроенный Win32-интерфейс для Win NT/2000
Выходной формат : Внутренние WAV-операции
Формат сэмплов : 44.100 Гц; 16 бит; стерео
TOC извлечённого CD
Трек | Старт | Длительность | Начальный сектор | Конечный сектор
---------------------------------------------------------------------
1 | 0:00.00 | 4:05.10 | 0 | 18384
2 | 4:05.10 | 3:42.25 | 18385 | 35059
3 | 7:47.35 | 3:01.20 | 35060 | 48654
4 | 10:48.55 | 4:04.50 | 48655 | 67004
5 | 14:53.30 | 4:06.07 | 67005 | 85461
6 | 18:59.37 | 4:23.40 | 85462 | 105226
7 | 23:23.02 | 3:38.18 | 105227 | 121594
8 | 27:01.20 | 3:37.37 | 121595 | 137906
9 | 30:38.57 | 3:27.28 | 137907 | 153459
10 | 34:06.10 | 4:37.32 | 153460 | 174266
11 | 38:43.42 | 2:48.33 | 174267 | 186899
12 | 41:32.00 | 4:05.37 | 186900 | 205311
13 | 45:37.37 | 5:27.18 | 205312 | 229854
14 | 51:04.55 | 6:52.20 | 229855 | 260774
Характеристики диапазона извлечения и сообщения об ошибках
Выбранный диапазон
Имя файла I:\temp\The Meteors - No Surrender (JICK-89596).wav
Пиковый уровень 99.2 %
Качество диапазона 100.0 %
CRC теста 8C1ACC32
CRC копии 8C1ACC32
Копирование... OK
Ошибок не произошло
AccurateRip: сводка
Трек 1 нет в базе данных
Трек 2 нет в базе данных
Трек 3 нет в базе данных
Трек 4 нет в базе данных
Трек 5 нет в базе данных
Трек 6 нет в базе данных
Трек 7 нет в базе данных
Трек 8 нет в базе данных
Трек 9 нет в базе данных
Трек 10 нет в базе данных
Трек 11 нет в базе данных
Трек 12 нет в базе данных
Трек 13 нет в базе данных
Трек 14 нет в базе данных
Ни одного трека нет в базе AccurateRip
Конец отчёта

Об исполнителе (группе)

The Meteors:
Shaun Berry - bass,backing vocals
Wolfgang Hordemann - drums,backing vocals
P. Paul Fenech - guitar,vocals,harmonica
[erzsebet.org].t35045.torrent 
Торрент: Зарегистрирован [ 2019-03-15 04:03 ]

Скачать .torrent

Скачать

16 KB

Статус: проверено
Скачан: 1 раз
Размер: 381 MB
Поблагодарили: 0  Спасибо
terms.php
[Профиль]  [ЛС] 
Показать сообщения:    
Ответить на тему

Текущее время: 20-Мар 15:14

Часовой пояс: UTC + 3



Вы не можете начинать темы
Вы не можете отвечать на сообщения
Вы не можете редактировать свои сообщения
Вы не можете удалять свои сообщения
Вы не можете голосовать в опросах
Вы не можете прикреплять файлы к сообщениям
Вы можете скачивать файлы