Брат 1 (Алексей Балабанов) [1997, Россия, боевик, драма, криминал, музыка, DVDRip]

Ответить на тему
Статистика раздачи
Размер:  2,17 GB   |    Зарегистрирован:  5 дней   |    Скачан:  7 раз

Полного источника не было: 2 дня 7 часов

 
     
 
 
 
Автор Сообщение

erzsebet ®

Стаж: 1 год 11 месяцев

Сообщений: 31247

Откуда: Hungary

Создавать темы 15-Мар-2019 05:17  |  Сменить автора

[Цитировать] 

Страна: Россия
Жанр: боевик, драма, криминал, музыка
Год выпуска: 1997
Продолжительность: 01:35:27-Перевод: Не требуется
Режиссер: Алексей Балабанов
В ролях:
Сергей Бодров мл. (Данила Багров), Виктор Сухоруков (Виктор Сергеевич Багров), Светлана Письмиченко (Света), Мария Жукова (Кэт), Юрий Кузнецов (немец), Сергей Мурзин (Круглый), Ирина Ракшина (Зинка), Анатолий Журавлев (нервный бандит), Андрей Федорцов (Степа), Андрей Краско (хозяин квартиры), Вячеслав Бутусов (играет самого себя), Игорь Шибанов (милиционер)
-Дублёры: Алексей Полуян (Виктор Сергеевич Багров), Александр Строев (Круглый), Валерий Кухарешин (Сергей Дебижев), Сергей Русскин (Павел Евграфович, муж Светы), Виктор Бычков (сосед Светланы; шофёр), Александр Половцев (бандит на рынке), Александр Баширов (бандит), Нина Усатова (мать)-Описание: Демобилизованный из армии, Данила Багров вернулся в родной городок. Но скучная жизнь российской провинции не устраивала его, и он решился податься в Петербург, где, по слухам, уже несколько лет процветает его старший брат. Данила нашел брата. Но все оказалось не так просто - брат был наемным убийцей...- -Качество: DVDRip
Контейнер: MKV
Видео: AVC, 1024x576 (16:9), 2867 kbps, 25 fps, 0,194 bpp
Аудио: AC3 / 5.1 / 48 kHz / 384 kbps / 16 bit-

Скриншоты


Media Info

General
Unique ID : 179314846237454157860271664600124350988 (0x86E6C87EC2554CD3B594BFC55E85E20C)
Complete name : D:Брат.1997.DVDRipAVC.[New-Team].mkv
Format : Matroska
Format version : Version 2
File size : 2.17 GiB
Duration : 1h 35mn
Overall bit rate : 3 252 Kbps
Encoded date : UTC 2014-01-17 18:32:21
Writing application : mkvmerge v5.8.0 ('No Sleep / Pillow') built on Sep 2 2012 15:37:04
Writing library : libebml v1.2.3 + libmatroska v1.3.0
Video
ID : 1
Format : AVC
Format/Info : Advanced Video Codec
Format profile : High@L4.1
Format settings, CABAC : Yes
Format settings, ReFrames : 4 frames
Codec ID : V_MPEG4/ISO/AVC
Duration : 1h 35mn
Bit rate : 2 867 Kbps
Width : 1 024 pixels
Height : 576 pixels
Display aspect ratio : 16:9
Frame rate mode : Constant
Frame rate : 25.000 fps
Color space : YUV
Chroma subsampling : 4:2:0
Bit depth : 8 bits
Scan type : Progressive
Bits/(Pixel*Frame) : 0.194
Stream size : 1.87 GiB (86%)
Writing library : x264 core 125 r2208 d9d2288
Encoding settings : cabac=1 / ref=3 / deblock=1:-1:-1 / analyse=0x3:0x133 / me=umh / subme=7 / psy=1 / psy_rd=1.00:0.15 / mixed_ref=1 / me_range=32 / chroma_me=1 / trellis=2 / 8x8dct=1 / cqm=0 / deadzone=21,11 / fast_pskip=0 / chroma_qp_offset=-3 / threads=3 / lookahead_threads=1 / sliced_threads=0 / nr=0 / decimate=1 / interlaced=0 / bluray_compat=0 / constrained_intra=0 / bframes=3 / b_pyramid=2 / b_adapt=2 / b_bias=0 / direct=3 / weightb=1 / open_gop=0 / weightp=2 / keyint=250 / keyint_min=25 / scenecut=40 / intra_refresh=0 / rc_lookahead=50 / rc=2pass / mbtree=1 / bitrate=2867 / ratetol=1.0 / qcomp=0.60 / qpmin=0 / qpmax=69 / qpstep=4 / cplxblur=20.0 / qblur=0.5 / ip_ratio=1.40 / aq=1:1.00
Default : Yes
Forced : No
Audio
ID : 2
Format : AC-3
Format/Info : Audio Coding 3
Mode extension : CM (complete main)
Format settings, Endianness : Big
Codec ID : A_AC3
Duration : 1h 35mn
Bit rate mode : Constant
Bit rate : 384 Kbps
Channel(s) : 6 channels
Channel positions : Front: L C R, Side: L R, LFE
Sampling rate : 48.0 KHz
Bit depth : 16 bits
Compression mode : Lossy
Stream size : 262 MiB (12%)
Default : Yes
Forced : No
[erzsebet.org].t35051.torrent 
Торрент: Зарегистрирован [ 2019-03-15 05:17 ]

Скачать .torrent

Скачать

12 KB

Статус: проверено
Скачан: 7 раз
Размер: 2,17 GB
Поблагодарили: 1  Спасибо   (список)
terms.php
Связанные раздачи
Добавлен Темы Размер S / L Ссылка
16-Дек-18 06:00 Брат 1 (Алексей Балабанов) [1997, Россия, боевик, драма, криминал, музыка, 1080p, WEB-DL]Отв. 0 3,73 GB | Скачать .torrent
[Профиль]  [ЛС] 
Показать сообщения:    
Ответить на тему

Текущее время: 20-Мар 15:15

Часовой пояс: UTC + 3



Вы не можете начинать темы
Вы не можете отвечать на сообщения
Вы не можете редактировать свои сообщения
Вы не можете удалять свои сообщения
Вы не можете голосовать в опросах
Вы не можете прикреплять файлы к сообщениям
Вы можете скачивать файлы