(Psychobilly) The Meteors - Stampede - 1984, FLAC (tracks+.cue), lossless

Ответить на тему
Статистика раздачи
Размер:  420 MB   |    Зарегистрирован:  5 дней   |    Скачан:  1 раз

Полного источника не было: 4 дня

 
     
 
 
 
Автор Сообщение

erzsebet ®

Стаж: 1 год 11 месяцев

Сообщений: 31245

Откуда: Hungary

Создавать темы 15-Мар-2019 07:17  |  Сменить автора

[Цитировать] 

The Meteors - Stampede
Жанр: Psychobilly
Год выпуска диска: 1984
Производитель диска: UK
Аудио кодек: FLAC
Тип рипа: tracks+.cue
Битрейт аудио: lossless
Продолжительность: 67:07
Трэклист:
1. Ex-Men Boogie
2. Power Of Steel
3. Hoover Rock
4. Kit Boy
5. Eat The Baby
6. Maybe Tomorrow
7. Electro
8. Stampede
9. I'm Just A Dog
10. In Too Deep
11. Cecil Drives A Combine Harvester
12. Michael Myers
13. Out Of The Dark
14. Only A Fury In My Heart
15. I'm Just A Dog
16. Stampede
17. Fire, Fire
18. Little Red Riding Hood

Отчёт EAC

Exact Audio Copy V0.99 prebeta 4 from 23. January 2008
EAC extraction logfile from 13. September 2008, 9:12
The Meteors / Stampede
Used drive : HL-DT-STDVD-ROM GDR8162B Adapter: 1 ID: 1
Read mode : Secure
Utilize accurate stream : Yes
Defeat audio cache : Yes
Make use of C2 pointers : No
Read offset correction : 102
Overread into Lead-In and Lead-Out : No
Fill up missing offset samples with silence : Yes
Delete leading and trailing silent blocks : No
Null samples used in CRC calculations : Yes
Used interface : Installed external ASPI interface
Gap handling : Appended to previous track
Used output format : User Defined Encoder
Selected bitrate : 192 kBit/s
Quality : High
Add ID3 tag : No
Command line compressor : C:\Program Files\Exact Audio Copy\flac.exe
Additional command line options : -8 -A tukey(0.25) -A gauss(0.1875) -b 4096 -V -T "artist=%a" -T "title=%t" -T "album=%g" -T "date=%y" -T "tracknumber=%n" -T "genre=%m" %s --sector-align
TOC of the extracted CD
Track | Start | Length | Start sector | End sector
---------------------------------------------------------
1 | 0:00.00 | 1:37.02 | 0 | 7276
2 | 1:37.02 | 5:01.21 | 7277 | 29872
3 | 6:38.23 | 3:07.36 | 29873 | 43933
4 | 9:45.59 | 3:32.62 | 43934 | 59895
5 | 13:18.46 | 3:18.26 | 59896 | 74771
6 | 16:36.72 | 3:43.17 | 74772 | 91513
7 | 20:20.14 | 3:26.04 | 91514 | 106967
8 | 23:46.18 | 2:45.63 | 106968 | 119405
9 | 26:32.06 | 3:55.37 | 119406 | 137067
10 | 30:27.43 | 3:03.64 | 137068 | 150856
11 | 33:31.32 | 2:47.10 | 150857 | 163391
12 | 36:18.42 | 4:06.13 | 163392 | 181854
13 | 40:24.55 | 2:57.26 | 181855 | 195155
14 | 43:22.06 | 4:41.28 | 195156 | 216258
15 | 48:03.34 | 7:40.33 | 216259 | 250791
16 | 55:43.67 | 4:37.20 | 250792 | 271586
17 | 60:21.12 | 3:19.41 | 271587 | 286552
18 | 63:40.53 | 4:09.05 | 286553 | 305232
Track 1
Filename C:\FLAC Rips\The Meteors - Stampede - FLAC\01 - The Meteors - Ex-Men Boogie.wav
Pre-gap length 0:00:02.00
Peak level 95.1 %
Track quality 100.0 %
Test CRC A1C114AD
Copy CRC A1C114AD
Track not present in AccurateRip database
Copy OK
Track 2
Filename C:\FLAC Rips\The Meteors - Stampede - FLAC\02 - The Meteors - Power Of Steel.wav
Peak level 100.0 %
Track quality 100.0 %
Test CRC 6B5CE132
Copy CRC 6B5CE132
Track not present in AccurateRip database
Copy OK
Track 3
Filename C:\FLAC Rips\The Meteors - Stampede - FLAC\03 - The Meteors - Hoover Rock.wav
Pre-gap length 0:00:02.00
Peak level 100.0 %
Track quality 100.0 %
Test CRC 731C7CBA
Copy CRC 731C7CBA
Track not present in AccurateRip database
Copy OK
Track 4
Filename C:\FLAC Rips\The Meteors - Stampede - FLAC\04 - The Meteors - Kit Boy.wav
Pre-gap length 0:00:02.00
Peak level 100.0 %
Track quality 99.9 %
Test CRC 039455B1
Copy CRC 039455B1
Track not present in AccurateRip database
Copy OK
Track 5
Filename C:\FLAC Rips\The Meteors - Stampede - FLAC\05 - The Meteors - Eat The Baby.wav
Pre-gap length 0:00:02.00
Peak level 97.0 %
Track quality 100.0 %
Test CRC 113C8DCC
Copy CRC 113C8DCC
Track not present in AccurateRip database
Copy OK
Track 6
Filename C:\FLAC Rips\The Meteors - Stampede - FLAC\06 - The Meteors - Maybe Tomorrow.wav
Pre-gap length 0:00:02.00
Peak level 100.0 %
Track quality 100.0 %
Test CRC 3B321EB2
Copy CRC 3B321EB2
Track not present in AccurateRip database
Copy OK
Track 7
Filename C:\FLAC Rips\The Meteors - Stampede - FLAC\07 - The Meteors - Electro.wav
Pre-gap length 0:00:02.00
Peak level 100.0 %
Track quality 100.0 %
Test CRC A414CBED
Copy CRC A414CBED
Track not present in AccurateRip database
Copy OK
Track 8
Filename C:\FLAC Rips\The Meteors - Stampede - FLAC\08 - The Meteors - Stampede.wav
Pre-gap length 0:00:02.00
Peak level 100.0 %
Track quality 100.0 %
Test CRC 92E22663
Copy CRC 92E22663
Track not present in AccurateRip database
Copy OK
Track 9
Filename C:\FLAC Rips\The Meteors - Stampede - FLAC\09 - The Meteors - Im Just A Dog.wav
Pre-gap length 0:00:02.00
Peak level 100.0 %
Track quality 100.0 %
Test CRC 6F2E07B7
Copy CRC 6F2E07B7
Track not present in AccurateRip database
Copy OK
Track 10
Filename C:\FLAC Rips\The Meteors - Stampede - FLAC\10 - The Meteors - In Too Deep.wav
Pre-gap length 0:00:02.00
Peak level 99.9 %
Track quality 100.0 %
Test CRC 875B9F2B
Copy CRC 875B9F2B
Track not present in AccurateRip database
Copy OK
Track 11
Filename C:\FLAC Rips\The Meteors - Stampede - FLAC\11 - The Meteors - Cecil Drives A Combine Harvester.wav
Pre-gap length 0:00:02.00
Peak level 100.0 %
Track quality 100.0 %
Test CRC 33A26B05
Copy CRC 33A26B05
Track not present in AccurateRip database
Copy OK
Track 12
Filename C:\FLAC Rips\The Meteors - Stampede - FLAC\12 - The Meteors - Michael Myers.wav
Pre-gap length 0:00:02.00
Peak level 99.9 %
Track quality 100.0 %
Test CRC AF737A1B
Copy CRC AF737A1B
Track not present in AccurateRip database
Copy OK
Track 13
Filename C:\FLAC Rips\The Meteors - Stampede - FLAC\13 - The Meteors - Out Of The Dark.wav
Pre-gap length 0:00:02.00
Peak level 100.0 %
Track quality 100.0 %
Test CRC 5BC8901A
Copy CRC 5BC8901A
Track not present in AccurateRip database
Copy OK
Track 14
Filename C:\FLAC Rips\The Meteors - Stampede - FLAC\14 - The Meteors - Only A Fury In My Heart.wav
Pre-gap length 0:00:02.00
Peak level 100.0 %
Track quality 100.0 %
Test CRC F175B76D
Copy CRC F175B76D
Track not present in AccurateRip database
Copy OK
Track 15
Filename C:\FLAC Rips\The Meteors - Stampede - FLAC\15 - The Meteors - I'm Just A Dog (Wild Hog Remix).wav
Pre-gap length 0:00:02.00
Peak level 100.0 %
Track quality 100.0 %
Test CRC E334768F
Copy CRC E334768F
Track not present in AccurateRip database
Copy OK
Track 16
Filename C:\FLAC Rips\The Meteors - Stampede - FLAC\16 - The Meteors - Stampede (King Ray Bat Scalator In The Dark Mix).wav
Pre-gap length 0:00:02.00
Peak level 100.0 %
Track quality 99.9 %
Test CRC 3B7037DC
Copy CRC 3B7037DC
Track not present in AccurateRip database
Copy OK
Track 17
Filename C:\FLAC Rips\The Meteors - Stampede - FLAC\17 - The Meteors - Fire, Fire.wav
Pre-gap length 0:00:01.98
Peak level 100.0 %
Track quality 99.9 %
Test CRC 604CB0D1
Copy CRC 604CB0D1
Track not present in AccurateRip database
Copy OK
Track 18
Filename C:\FLAC Rips\The Meteors - Stampede - FLAC\18 - The Meteors - Little Red Riding Hood.wav
Pre-gap length 0:00:02.00
Peak level 100.0 %
Track quality 99.9 %
Test CRC F06B4432
Copy CRC F06B4432
Track not present in AccurateRip database
Copy OK
None of the tracks are present in the AccurateRip database
No errors occurred
End of status report

Отчёт Audiochecker

AUDIOCHECKER v2.0 beta (build 457) - by Dester - opdester@freemail.hu
~~~~~~~~~~~~~~~~~~~~~~~~~~~~~~~~~~
-=== DO NOT EDIT THIS FILE! ===-
Path: ...\The Meteors - 1984 - Stampede
01 -=- 01 - The Meteors - Ex-Men Boogie.flac -=- CDDA (100%)
02 -=- 02 - The Meteors - Power Of Steel.flac -=- CDDA (100%)
03 -=- 03 - The Meteors - Hoover Rock.flac -=- CDDA (99%)
04 -=- 04 - The Meteors - Kit Boy.flac -=- CDDA (99%)
05 -=- 05 - The Meteors - Eat The Baby.flac -=- CDDA (100%)
06 -=- 06 - The Meteors - Maybe Tomorrow.flac -=- CDDA (100%)
07 -=- 07 - The Meteors - Electro.flac -=- CDDA (100%)
08 -=- 08 - The Meteors - Stampede.flac -=- CDDA (100%)
09 -=- 09 - The Meteors - Im Just A Dog.flac -=- CDDA (99%)
10 -=- 10 - The Meteors - In Too Deep.flac -=- CDDA (100%)
11 -=- 11 - The Meteors - Cecil Drives A Combine Harvester.flac -=- CDDA (100%)
12 -=- 12 - The Meteors - Michael Myers.flac -=- CDDA (100%)
13 -=- 13 - The Meteors - Out Of The Dark.flac -=- CDDA (100%)
14 -=- 14 - The Meteors - Only A Fury In My Heart.flac -=- CDDA (100%)
15 -=- 15 - The Meteors - I'm Just A Dog (Wild Hog Remix).flac -=- CDDA (99%)
16 -=- 16 - The Meteors - Stampede (King Ray Bat Scalator In The Dark Mix).flac -=- CDDA (100%)
17 -=- 17 - The Meteors - Fire, Fire.flac -=- CDDA (100%)
18 -=- 18 - The Meteors - Little Red Riding Hood.flac -=- CDDA (100%)
Summary 99,78% CDDA
27060772
[erzsebet.org].t35057.torrent 
Торрент: Зарегистрирован [ 2019-03-15 07:17 ]

Скачать .torrent

Скачать

18 KB

Статус: проверено
Скачан: 1 раз
Размер: 420 MB
Поблагодарили: 0  Спасибо
terms.php
[Профиль]  [ЛС] 
Показать сообщения:    
Ответить на тему

Текущее время: 20-Мар 15:09

Часовой пояс: UTC + 3



Вы не можете начинать темы
Вы не можете отвечать на сообщения
Вы не можете редактировать свои сообщения
Вы не можете удалять свои сообщения
Вы не можете голосовать в опросах
Вы не можете прикреплять файлы к сообщениям
Вы можете скачивать файлы