(Psychobilly) The Meteors - In Heaven, Wreckin' Crew, Sewertime Blues, Don't touch the bang bang fruit - 1981 - 1987, FLAC (tracks), APE (image + .CUE), lossless

Ответить на тему
Статистика раздачи
Размер:  959 MB   |    Зарегистрирован:  5 дней   |    Скачан:  4 раза

Полного источника не было: 4 дня

 
     
 
 
 
Автор Сообщение

erzsebet ®

Стаж: 1 год 11 месяцев

Сообщений: 31245

Откуда: Hungary

Создавать темы 15-Мар-2019 07:30  |  Сменить автора

[Цитировать] 

The Meteors - In Heaven, Wreckin' Crew, Sewertime Blues, Don't touch the bang bang fruit
Жанр: Psychobilly
Год выпуска диска: 1981 - 1987
Производитель диска: UK
Аудио кодек: FLAC, APE
Тип рипа: tracks, image + .CUE
Битрейт аудио: lossless
Продолжительность: 2:13:59
Трэклист:
In Heaven - 1981

01 - In Heaven
02 - Shout So Loud
03 - Earwigs In My Brain
04 - In The Cards
05 - Attack Of The Zorch Men
06 - The Crazed
07 - Get Off Of My Cloud
08 - Love You To Death
09 - Teenagers From Outer Space
10 - Maniac
11 - Into The Darkness
12 - Death Dance
13 - Psycho For Your Love
14 - The Room
15 - Rockabilly Psychosis
16 - Talk
Wreckin' Crew - 1983

01 - Insane
02 - I Ain't Ready
03 - Johnny Remember Me
04 - I Don't Worry About It
05 - Zombie noise
06 - Rattlesnakin' Daddy
07 - When A Stranger Calls
08 - Blue Sunshine
09 - Wreckin' Crew
10 - Sick Things
11 - Wild Thing
12 - I'm Not Mad Get Off My Cloud
13 - Hills Have Eyes
14 - Mutant Rock
Sewertime Blues - 1986

01 - Ain't Taking a Chance
02 - So Sad
03 - Here's Johnny
04 - Mind Over Matter
05 - Acid and Psyam
06 - Sewertime Blues
07 - Return of Ethel Merman
08 - Deep Dark Jungle
09 - Never Get Away
10 - I Bury the Living
11 - Vibrate
12 - Surf City
Don't touch the bang bang fruit - 1987

01 - Go Buddy Go
02 - Midnight People
03 - Low Livin' Daddy
04 - Your Worst Nightmare
05 - Wildkat Ways
06 - Repo Man
07 - Don't Touch The Bang Bang Fruit
08 - Crack Me Up
09 - Shakey Snakey
10 - Psycho Kat
11 - Let Go
12 - Revenge Of El Trio Los Bastardos

The Meteors - Dont touch the band bang fruit, Sewertime Blues.log

Exact Audio Copy V0.99 prebeta 4 from 23. January 2008
EAC extraction logfile from 9. August 2008, 10:19
The Meteors / Sewertime Blues
Used drive : ASUS DVD-E616A2 Adapter: 1 ID: 3
Read mode : Secure
Utilize accurate stream : Yes
Defeat audio cache : Yes
Make use of C2 pointers : No
Read offset correction : 6
Overread into Lead-In and Lead-Out : No
Fill up missing offset samples with silence : Yes
Delete leading and trailing silent blocks : No
Null samples used in CRC calculations : Yes
Used interface : Native Win32 interface for Win NT & 2000
Gap handling : Not detected, thus appended to previous track
Used output format : Internal WAV Routines
Sample format : 44.100 Hz; 16 Bit; Stereo
TOC of the extracted CD
Track | Start | Length | Start sector | End sector
---------------------------------------------------------
1 | 0:00.00 | 3:58.32 | 0 | 17881
2 | 3:58.32 | 4:05.06 | 17882 | 36262
3 | 8:03.38 | 3:23.42 | 36263 | 51529
4 | 11:27.05 | 1:59.14 | 51530 | 60468
5 | 13:26.19 | 2:36.04 | 60469 | 72172
6 | 16:02.23 | 3:03.16 | 72173 | 85913
7 | 19:05.39 | 2:35.67 | 85914 | 97605
8 | 21:41.31 | 3:46.16 | 97606 | 114571
9 | 25:27.47 | 2:44.64 | 114572 | 126935
10 | 28:12.36 | 2:29.59 | 126936 | 138169
11 | 30:42.20 | 2:06.27 | 138170 | 147646
12 | 32:48.47 | 3:04.39 | 147647 | 161485
13 | 35:53.11 | 3:31.59 | 161486 | 177369
14 | 39:24.70 | 2:56.06 | 177370 | 190575
15 | 42:21.01 | 3:15.47 | 190576 | 205247
16 | 45:36.48 | 2:49.04 | 205248 | 217926
17 | 48:25.52 | 2:13.69 | 217927 | 227970
18 | 50:39.46 | 4:47.59 | 227971 | 249554
19 | 55:27.30 | 3:08.01 | 249555 | 263655
20 | 58:35.31 | 2:49.39 | 263656 | 276369
21 | 61:24.70 | 2:17.72 | 276370 | 286716
22 | 63:42.67 | 2:35.04 | 286717 | 298345
23 | 66:17.71 | 3:52.74 | 298346 | 315819
24 | 70:10.70 | 3:04.26 | 315820 | 329645
Track 1
Filename D:\torrent\Meteors (correct)\Sewertime Blues, Don't touch the bang bang fruit\Track01.wav
Peak level 73.7 %
Track quality 99.9 %
Copy CRC 4616ADCD
Copy OK
Track 2
Filename D:\torrent\Meteors (correct)\Sewertime Blues, Don't touch the bang bang fruit\Track02.wav
Peak level 71.9 %
Track quality 100.0 %
Copy CRC 322D1CAA
Copy OK
Track 3
Filename D:\torrent\Meteors (correct)\Sewertime Blues, Don't touch the bang bang fruit\Track03.wav
Peak level 59.7 %
Track quality 99.9 %
Copy CRC 64598AFE
Copy OK
Track 4
Filename D:\torrent\Meteors (correct)\Sewertime Blues, Don't touch the bang bang fruit\Track04.wav
Peak level 67.6 %
Track quality 99.9 %
Copy CRC 5CB1F01D
Copy OK
Track 5
Filename D:\torrent\Meteors (correct)\Sewertime Blues, Don't touch the bang bang fruit\Track05.wav
Peak level 63.1 %
Track quality 99.9 %
Copy CRC 13E52789
Copy OK
Track 6
Filename D:\torrent\Meteors (correct)\Sewertime Blues, Don't touch the bang bang fruit\Track06.wav
Peak level 65.3 %
Track quality 100.0 %
Copy CRC 3ECC54C8
Copy OK
Track 7
Filename D:\torrent\Meteors (correct)\Sewertime Blues, Don't touch the bang bang fruit\Track07.wav
Peak level 80.4 %
Track quality 100.0 %
Copy CRC FB3E8D9E
Copy OK
Track 8
Filename D:\torrent\Meteors (correct)\Sewertime Blues, Don't touch the bang bang fruit\Track08.wav
Peak level 70.0 %
Track quality 100.0 %
Copy CRC 5496B73B
Copy OK
Track 9
Filename D:\torrent\Meteors (correct)\Sewertime Blues, Don't touch the bang bang fruit\Track09.wav
Peak level 66.5 %
Track quality 100.0 %
Copy CRC B8773089
Copy OK
Track 10
Filename D:\torrent\Meteors (correct)\Sewertime Blues, Don't touch the bang bang fruit\Track10.wav
Peak level 68.4 %
Track quality 100.0 %
Copy CRC B8C25E63
Copy OK
Track 11
Filename D:\torrent\Meteors (correct)\Sewertime Blues, Don't touch the bang bang fruit\Track11.wav
Peak level 69.9 %
Track quality 100.0 %
Copy CRC 2E074AC9
Copy OK
Track 12
Filename D:\torrent\Meteors (correct)\Sewertime Blues, Don't touch the bang bang fruit\Track12.wav
Peak level 58.7 %
Track quality 100.0 %
Copy CRC 73910449
Copy OK
Track 13
Filename D:\torrent\Meteors (correct)\Sewertime Blues, Don't touch the bang bang fruit\Track13.wav
Peak level 77.3 %
Track quality 100.0 %
Copy CRC B5831CF6
Copy OK
Track 14
Filename D:\torrent\Meteors (correct)\Sewertime Blues, Don't touch the bang bang fruit\Track14.wav
Peak level 92.3 %
Track quality 100.0 %
Copy CRC DC920436
Copy OK
Track 15
Filename D:\torrent\Meteors (correct)\Sewertime Blues, Don't touch the bang bang fruit\Track15.wav
Peak level 86.7 %
Track quality 100.0 %
Copy CRC E6C56E67
Copy OK
Track 16
Filename D:\torrent\Meteors (correct)\Sewertime Blues, Don't touch the bang bang fruit\Track16.wav
Peak level 85.0 %
Track quality 100.0 %
Copy CRC 742046FA
Copy OK
Track 17
Filename D:\torrent\Meteors (correct)\Sewertime Blues, Don't touch the bang bang fruit\Track17.wav
Peak level 71.2 %
Track quality 100.0 %
Copy CRC D9CEC638
Copy OK
Track 18
Filename D:\torrent\Meteors (correct)\Sewertime Blues, Don't touch the bang bang fruit\Track18.wav
Peak level 86.2 %
Track quality 100.0 %
Copy CRC 4F4B4CC9
Copy OK
Track 19
Filename D:\torrent\Meteors (correct)\Sewertime Blues, Don't touch the bang bang fruit\Track19.wav
Peak level 90.7 %
Track quality 100.0 %
Copy CRC 8A4914CC
Copy OK
Track 20
Filename D:\torrent\Meteors (correct)\Sewertime Blues, Don't touch the bang bang fruit\Track20.wav
Peak level 75.7 %
Track quality 100.0 %
Copy CRC 40AC7321
Copy OK
Track 21
Filename D:\torrent\Meteors (correct)\Sewertime Blues, Don't touch the bang bang fruit\Track21.wav
Peak level 79.0 %
Track quality 100.0 %
Copy CRC C0B3A435
Copy OK
Track 22
Filename D:\torrent\Meteors (correct)\Sewertime Blues, Don't touch the bang bang fruit\Track22.wav
Peak level 74.4 %
Track quality 99.9 %
Copy CRC F083AF7B
Copy OK
Track 23
Filename D:\torrent\Meteors (correct)\Sewertime Blues, Don't touch the bang bang fruit\Track23.wav
Peak level 82.1 %
Track quality 100.0 %
Copy CRC 98BBDF4B
Copy OK
Track 24
Filename D:\torrent\Meteors (correct)\Sewertime Blues, Don't touch the bang bang fruit\Track24.wav
Peak level 75.3 %
Track quality 100.0 %
Copy CRC FE5C4DFA
Copy OK
No errors occurred
End of status report

The Meteors - In Heaven.log EAC

Exact Audio Copy V0.99 prebeta 4 from 23. January 2008
Отчёт EAC об извлечении, выполненном 6. марта 2009, 12:35
The Meteors / In Heaven
Дисковод: PIONEER DVD-RW DVR-112D Adapter: 3 ID: 0
Режим чтения : Достоверность
Использование точного потока : Да
Отключение кэша аудио : Да
Использование указателей C2 : Нет
Коррекция смещения при чтении : 48
Способность читать области Lead-in и Lead-out : Нет
Заполнение пропущенных сэмплов тишиной : Да
Удаление блоков с тишиной в начале и конце : Нет
При вычислениях CRC использовались нулевые сэмплы : Да
Интерфейс : Встроенный Win32-интерфейс для Win NT/2000
Выходной формат : Внутренние WAV-операции
Формат сэмплов : 44.100 Гц; 16 бит; стерео
TOC извлечённого CD
Трек | Старт | Длительность | Начальный сектор | Конечный сектор
---------------------------------------------------------------------
1 | 0:00.00 | 0:43.07 | 0 | 3231
2 | 0:43.07 | 1:46.60 | 3232 | 11241
3 | 2:29.67 | 2:47.58 | 11242 | 23824
4 | 5:17.50 | 2:15.40 | 23825 | 33989
5 | 7:33.15 | 3:09.20 | 33990 | 48184
6 | 10:42.35 | 2:32.07 | 48185 | 59591
7 | 13:14.42 | 2:10.68 | 59592 | 69409
8 | 15:25.35 | 5:00.25 | 69410 | 91934
9 | 20:25.60 | 2:12.10 | 91935 | 101844
10 | 22:37.70 | 2:54.55 | 101845 | 114949
11 | 25:32.50 | 2:12.62 | 114950 | 124911
12 | 27:45.37 | 2:48.73 | 124912 | 137584
13 | 30:34.35 | 2:38.35 | 137585 | 149469
14 | 33:12.70 | 2:03.67 | 149470 | 158761
15 | 35:16.62 | 2:10.66 | 158762 | 168577
Характеристики диапазона извлечения и сообщения об ошибках
Выбранный диапазон
Имя файла F:\Upload\The Meteors-In Heaven [1981]\The Meteors - In Heaven.wav
Пиковый уровень 100.0 %
Качество диапазона 100.0 %
CRC копии 1CD57824
Копирование... OK
Ошибок не произошло
Конец отчёта

The Meteors - In Heaven.log audiochecker

AUDIOCHECKER v2.0 beta (build 457) - by Dester - opdester@freemail.hu
~~~~~~~~~~~~~~~~~~~~~~~~~~~~~~~~~~
-=== DO NOT EDIT THIS FILE! ===-
Path: ...\The Meteors-In Heaven [1981]
1 -=- The Meteors - In Heaven.ape -=- CDDA (100%)
34469524

The Meteors - Wreckin' Crew.log

Exact Audio Copy V0.99 prebeta 4 from 23. January 2008
EAC extraction logfile from 9. August 2008, 10:43
The Meteors / Wreckin' Crew
Used drive : ASUS DVD-E616A2 Adapter: 1 ID: 3
Read mode : Secure
Utilize accurate stream : Yes
Defeat audio cache : Yes
Make use of C2 pointers : No
Read offset correction : 6
Overread into Lead-In and Lead-Out : No
Fill up missing offset samples with silence : Yes
Delete leading and trailing silent blocks : No
Null samples used in CRC calculations : Yes
Used interface : Native Win32 interface for Win NT & 2000
Gap handling : Not detected, thus appended to previous track
Used output format : Internal WAV Routines
Sample format : 44.100 Hz; 16 Bit; Stereo
TOC of the extracted CD
Track | Start | Length | Start sector | End sector
---------------------------------------------------------
1 | 0:00.00 | 3:45.56 | 0 | 16930
2 | 3:45.56 | 2:34.72 | 16931 | 28552
3 | 6:20.53 | 3:32.12 | 28553 | 44464
4 | 9:52.65 | 3:26.62 | 44465 | 59976
5 | 13:19.52 | 1:52.40 | 59977 | 68416
6 | 15:12.17 | 1:58.44 | 68417 | 77310
7 | 17:10.61 | 2:58.65 | 77311 | 90725
8 | 20:09.51 | 2:32.49 | 90726 | 102174
9 | 22:42.25 | 2:30.62 | 102175 | 113486
10 | 25:13.12 | 4:04.20 | 113487 | 131806
11 | 29:17.32 | 1:49.72 | 131807 | 140053
12 | 31:07.29 | 2:18.23 | 140054 | 150426
13 | 33:25.52 | 3:39.50 | 150427 | 166901
14 | 37:05.27 | 2:21.21 | 166902 | 177497
Track 1
Filename D:\torrent\Meteors (correct)\Wreckin' Crew\Track01.wav
Peak level 88.6 %
Track quality 100.0 %
Copy CRC FB5A67F8
Copy OK
Track 2
Filename D:\torrent\Meteors (correct)\Wreckin' Crew\Track02.wav
Peak level 85.9 %
Track quality 100.0 %
Copy CRC 6ECEDCA9
Copy OK
Track 3
Filename D:\torrent\Meteors (correct)\Wreckin' Crew\Track03.wav
Peak level 51.3 %
Track quality 99.9 %
Copy CRC B0B5BF8D
Copy OK
Track 4
Filename D:\torrent\Meteors (correct)\Wreckin' Crew\Track04.wav
Peak level 74.5 %
Track quality 100.0 %
Copy CRC D1629826
Copy OK
Track 5
Filename D:\torrent\Meteors (correct)\Wreckin' Crew\Track05.wav
Peak level 93.3 %
Track quality 99.9 %
Copy CRC 94B3A4FB
Copy OK
Track 6
Filename D:\torrent\Meteors (correct)\Wreckin' Crew\Track06.wav
Peak level 79.6 %
Track quality 99.8 %
Copy CRC 8FCCBCB9
Copy OK
Track 7
Filename D:\torrent\Meteors (correct)\Wreckin' Crew\Track07.wav
Peak level 87.5 %
Track quality 99.9 %
Copy CRC EEB630E8
Copy OK
Track 8
Filename D:\torrent\Meteors (correct)\Wreckin' Crew\Track08.wav
Peak level 94.8 %
Track quality 99.9 %
Copy CRC 52DFF27F
Copy OK
Track 9
Filename D:\torrent\Meteors (correct)\Wreckin' Crew\Track09.wav
Peak level 98.0 %
Track quality 100.0 %
Copy CRC 6712B68E
Copy OK
Track 10
Filename D:\torrent\Meteors (correct)\Wreckin' Crew\Track10.wav
Peak level 96.9 %
Track quality 100.0 %
Copy CRC 2A5A6E48
Copy OK
Track 11
Filename D:\torrent\Meteors (correct)\Wreckin' Crew\Track11.wav
Peak level 66.5 %
Track quality 100.0 %
Copy CRC AD3CBC14
Copy OK
Track 12
Filename D:\torrent\Meteors (correct)\Wreckin' Crew\Track12.wav
Peak level 73.6 %
Track quality 100.0 %
Copy CRC A99712C9
Copy OK
Track 13
Filename D:\torrent\Meteors (correct)\Wreckin' Crew\Track13.wav
Peak level 81.4 %
Track quality 100.0 %
Copy CRC 5615BB1C
Copy OK
Track 14
Filename D:\torrent\Meteors (correct)\Wreckin' Crew\Track14.wav
Peak level 75.5 %
Track quality 100.0 %
Copy CRC 08F68BA4
Copy OK
No errors occurred
End of status report
[erzsebet.org].t35059.torrent 
Торрент: Зарегистрирован [ 2019-03-15 07:30 ]

Скачать .torrent

Скачать

23 KB

Статус: проверено
Скачан: 4 раз
Размер: 959 MB
Поблагодарили: 0  Спасибо
terms.php
[Профиль]  [ЛС] 
Показать сообщения:    
Ответить на тему

Текущее время: 20-Мар 15:10

Часовой пояс: UTC + 3



Вы не можете начинать темы
Вы не можете отвечать на сообщения
Вы не можете редактировать свои сообщения
Вы не можете удалять свои сообщения
Вы не можете голосовать в опросах
Вы не можете прикреплять файлы к сообщениям
Вы можете скачивать файлы