[HouseOfTaboo.com / DDFNetwork.com] Florane Russell (BDSM Babe's Anal Gape / Submissive’s Anal Defloration) [2018-06-15, Anal, Ass licking, Blowjob, Sucking, Deep throat, Hardcore, Bondage, 1080p]

Ответить на тему
Статистика раздачи
Размер:  1,86 GB   |    Зарегистрирован:  5 дней   |    Скачан:  2 раза

Полного источника не было: 52 минуты

 
     
 
 
 
Автор Сообщение

erzsebet ®

Стаж: 1 год 11 месяцев

Сообщений: 31245

Откуда: Hungary

Создавать темы 15-Мар-2019 07:39  |  Сменить автора

[Цитировать] 

[HouseOfTaboo.com / DDFNetwork.com] Florane Russell (BDSM Babe's Anal Gape)
Имя актрисы: Florane Russell
Название ролика: BDSM Babe's Anal Gape
Подсайт и сайт: HouseOfTaboo.com / DDFNetwork.com
Дата производства: 2018-06-15
Жанр: Anal, Ass licking, Blowjob, Sucking, Deep throat, Hardcore, Bondage
Продолжительность: 00:32:35
Описание: The blonde stunner with endless legs and big tits got tied to some balcony’s poles and receives some intense warmup pussy licking by her Master Erik Everhard. He crams her pink with his tongue and immediately stuffs his cock into her tight clam. The top-heavy human sex doll wears a leather and chain collar, some leather straps and metal rings around her enormous titties. The gagball in her mouth is soon removed by Erik Everhard, so he can penetrate that blonde milf’s deep throat with his massive dick.
He walks her on a leash into the living room, where he starts plowing her asshole with his big meat until she moans, followed by drooling all over his cock for some ass to mouth action! Watch her ride his dick in reverse cowgirl position before he plunges her asshole with his thick rod. The horny little hottie loves some spanking action and submissively kneels in front of her Master as he blows his cum all over that light-skinned babe’s insatiable mouth. Florane Rossel deserves some extra spanking and slapping, right? Leave a sexy BDSM comment for her and share this hardcore XXX premium porn with your anal sex craving friends!
Доп. информация: Альтернативное название ролика: Submissive’s Anal Defloration
Тип HD видео: 1080p
Формат видео: MP4
Видео: AVC, 1920x1080, 29,970, 8000 Кбит/сек, High@L4
Аудио: AAC LC, 48,0 КГц, 2 канала, 192 Кбит/сек

Скринлист

MediaInfo

Общее
Полное имя : D:\!Torrent\End\!My\Florane Russell - HouseOfTaboo - BDSM Babes Anal Gape 1080p.mp4
Формат : MPEG-4
Профиль формата : Base Media
Идентификатор кодека : isom (isom/iso2/avc1/mp41)
Размер файла : 1,86 Гбайт
Продолжительность : 32 м. 35 с.
Режим общего битрейта : Переменный
Общий поток : 8190 Кбит/сек
Программа кодирования : Lavf57.83.100
Видео
Идентификатор : 1
Формат : AVC
Формат/Информация : Advanced Video Codec
Профиль формата : High@L4
Настройки формата : CABAC / 4 Ref Frames
Параметр CABAC формата : Да
Параметр RefFrames формата : 4 кадра
Параметр GOP формата : M=3, N=29
Идентификатор кодека : avc1
Идентификатор кодека/Информация : Advanced Video Coding
Продолжительность : 32 м. 35 с.
Вид битрейта : Переменный
Битрейт : 8000 Кбит/сек
Ширина : 1920 пикселей
Высота : 1080 пикселей
Соотношение сторон : 16:9
Режим частоты кадров : Постоянный
Частота кадров : 29,970 (30000/1001) кадров/сек
Стандарт вещания : NTSC
Цветовое пространство : YUV
Субдискретизация насыщенности : 4:2:0
Битовая глубина : 8 бит
Тип развёртки : Прогрессивная
Бит/(Пиксели*Кадры) : 0.129
Размер потока : 1,82 Гбайт (98%)
Цветовой диапазон : Limited
Основные цвета : BT.709
Характеристики трансфера : BT.709
Коэффициенты матрицы : BT.709
Codec configuration box : avcC
Аудио
Идентификатор : 2
Формат : AAC LC
Формат/Информация : Advanced Audio Codec Low Complexity
Идентификатор кодека : mp4a-40-2
Продолжительность : 32 м. 35 с.
Duration_LastFrame : 2 мс.
Вид битрейта : Постоянный
Битрейт : 192 Кбит/сек
Каналы : 2 канала
Channel layout : L R
Частота : 48,0 КГц
Частота кадров : 46,875 кадров/сек (1024 SPF)
Метод сжатия : С потерями
Размер потока : 44,2 Мбайт (2%)
Default : Да
AlternateGroup/String : 1
[erzsebet.org].t35063.torrent 
Торрент: Зарегистрирован [ 2019-03-15 07:39 ]

Скачать .torrent

Скачать

19 KB

Статус: проверено
Скачан: 2 раз
Размер: 1,86 GB
Поблагодарили: 0  Спасибо
terms.php
[Профиль]  [ЛС] 
Показать сообщения:    
Ответить на тему

Текущее время: 20-Мар 15:10

Часовой пояс: UTC + 3



Вы не можете начинать темы
Вы не можете отвечать на сообщения
Вы не можете редактировать свои сообщения
Вы не можете удалять свои сообщения
Вы не можете голосовать в опросах
Вы не можете прикреплять файлы к сообщениям
Вы можете скачивать файлы