Секретные Материалы / The X-Files / Сезон: 6 / Серии: 1-22 (22) (Роберт Мэндел) [1998, США, Канада, Научная фантастика, BDRemux 1080p] DUB (ТВ3) + MVO (ОРТ) + DVO (Ren-TV, 2+2, СТБ) + 2xAVO (Визгунов, Живов) + Original + Sub

Ответить на тему
Статистика раздачи
Размер:  239,31 GB   |    Зарегистрирован:  6 месяцев 20 дней   |    Скачан:  0 раз

Полного источника не было: Никогда

 
 
 
Автор Сообщение

erzsebet ®

Стаж: 17 лет

Сообщений: 73897

Создавать темы 30-Янв-2019 05:33  |  Сменить автора

[Цитировать] 

Секретные материалы / The X-files...Шестой сезон...
Год выпуска: 1997-1998
Страна: США/Канада
Жанр: Научная фантастика
Продолжительность: ~00:45:00-Перевод: Авторский (одноголосный закадровый): Сергей Визгунов (ранний, ранний+2016)
Перевод: Авторский (одноголосный закадровый): Юрий Живов
Перевод: Профессиональный (двухголосный закадровый): РЕН-ТВ
Перевод: Профессиональный (двухголосный закадровый): 2+2 (украинский)
Перевод: Профессиональный (двухголосный закадровый): СТБ (украинский)
Перевод: Профессиональный (многоголосный закадровый): ОРТ
Перевод: Профессиональный (дублированный): ТВ3
-Режиссер: Chris Carter
В ролях: Дэвид Духовны, Джиллиан Андерсон, Митч Пилегги, Уильям Б. Дэвис, Николас Ли, Том Брэйдвуд, Дин Хаглунд, Брюс ХарвудОписание: Секретные материалы — научно-фантастический и мистический сериал о двух агентах ФБР: Фоксе Малдере и Дане Скалли.-
Специальному агенту Дане Скалли, доктору и выпускнику академии ФБР в Виргинии, поручают работу в паре с агентом Фоксом Малдером над проектом «Секретные материалы» — архивом таинственных, нерешённых дел ФБР, которые зачастую связаны с паранормальными явлениями, случаями вампиризма и оборотничества, нападением генетических мутантов, свидетельствами о похищении людей пришельцами…
Малдер верит в пришельцев и пытается убедить скептика Скалли, что не всё и не всегда поддаётся разумному объяснению. Это связано с детством Малдера, душевной травмой, которую он перенёс в связи с исчезновением его сестры. Малдер убеждён, что её похитили инопланетяне, и пытается выяснить, как; это терзает его на протяжении всей жизни. Также отец Малдера своими поступками в прошлом повлиял на его выбор в будущем. В своих дискуссиях Малдер и Скалли не столько стараются убедить друг друга, сколько получают удовольствие от самого общения. Постепенно первоначальное взаимное недоверие перерастает в дружбу, а чуть позже и в более глубокое чувство.
Эпизоды сериала делятся на два вида. Часть из них относятся к основной сюжетной линии, называемой мифологией сериала, которая на протяжении всех сезонов ведёт к своему логическому завершению и повествует о том, как Малдер и Скалли пытаются раскрыть тайны секретной правительственной организации, располагающей фактами о прибытии на Землю инопланетных цивилизаций. Подавляющее большинство других серий «Секретных материалов», которые называют монстрами недели, рассказывают об отдельных расследованиях Малдера и Скалли, как правило, не связанных с «мифологией». Тем не менее, некоторые «монстры недели» могут быть косвенно связаны с сюжетными линиями «мифологии», например, в том, что касается заговоров и интриг внутри ФБР и правительства США, личной жизни главных героев и второстепенных персонажей, ключевых именно для «мифологии». Поэтому для всестороннего понимания и оценки художественной ценности сериала необходимо смотреть все его серии и даже несколько абстрагироваться от какого-либо разделения на «мифологические» и «немифологические».
Ближе к завершению сериала раскрывается его фундаментальная суть, которая проливает свет на большинство описываемых в нём событий; по задумке авторов, правда, как всегда, туманна, и истина ускользает в самый последний момент
-Качество: BD-Remux
Формат: MKV
Видео кодек: AVC
Аудио кодек: DTS-HD: Core, AC3
Видео: AVC | 1920x1080 | 23.976 fps, ~25.4Mb/s, ~0.510 bit/pixel
-Аудиодорожка 01: AC3 | 16 bits | 48khz | 2ch | 256 kb/s | (русский) | Визгунов Сергей | серии 01-21
Аудиодорожка 01: AC3 | 16 bits | 48khz | 2ch | 256 kb/s | (русский) | Визгунов Сергей (+patches 2016) | серия 22
Аудиодорожка 02: DTS-HD: Core | 16 bits | 48.0 KHz | 5.1 ch | ~2200 Kbps | (русский) | Живов Юрий | серии 01-22
Аудиодорожка 03: AC3 | 16 bits | 48khz | 2ch (Mono) | 192 kb/s | (русский) | Телеканал ОРТ [Селена Интернейшнл] | серии 01-22
Аудиодорожка 04: AC3 | 16 bits | 48khz | 2ch (Mono) | 192 kb/s | (русский) | Телеканал РЕН-ТВ [Кипарис] | серии 01-22
Аудиодорожка 05: AC3 | 16 bits | 48khz | 2ch | 192 kb/s | (русский) | Телеканал ТВ3 [Room 13] | серии 01-22
Аудиодорожка 06: AC3 | 16 bits | 48khz | 2ch | 256 kb/s | (русский) | Шевчук Андрей (RoxMarty) | [аудиокомментарии] серии 03, 11-12, 18
Аудиодорожка 06: AC3 | 16 bits | 48khz | 2ch (Mono) | 192 kb/s | (украинский) | 2+2 | серии 01-22
Аудиодорожка 07: AC3 | 16 bits | 48khz | 2ch (Mono) | 192 kb/s | (украинский) | СТБ | серии 01-22
Аудиодорожка 08: DTS-HD: Core | 24 bits | 48.0 KHz | 5.1 ch | ~4000 Kbps | (английский) Оригинал: | English | серии 01-22
Аудиодорожка 09: AC3 | 16 bits | 48khz | 2ch | 192 kb/s | (английский) Оригинал: | Commentary | серии 03, 11-12, 18-Субтитры 01a : ASS | (русский) | Надписи (animated) | серии 01-15,17-22
Субтитры 01b : ASS | (русский) | Надписи (animated) | серия 16 | скачать отдельно (в раздаче отсутствует)
Субтитры 02: ASS | (русский) | Русские (lostrator) | серии 01-22
Субтитры 03: UTF-8 | (русский) | frenky bauer [комментарии] | серия 18
Субтитры 04: PGS | (английский) | English | серии 01-22
Субтитры 05: PGS | (английский) | Libby [commentary] | серии 03, 11-12, 18--Список серий и дополнительных материалов - раскрыть спойлер "Список файлов" под кнопкой "Скачать .torrent"

MI

Общее
Уникальный идентификатор : 132147811551221395670253719411593609301 (0x636ABE23E47161608D909B4696408055)
Полное имя : ...\X-files\BD\Season 06 (BD)\DONE\6x01 {BD} [ENG+sub].mkv
Формат : Matroska
Версия формата : Version 4 / Version 2
Размер файла : 10,7 Гбайт
Продолжительность : 44 м.
Режим общего битрейта : Переменный
Общий поток : 34,5 Мбит/сек
Дата кодирования : UTC 2018-09-22 21:01:48
Программа кодирования : mkvmerge v26.0.0 ('In The Game') 64-bit
Библиотека кодирования : libebml v1.3.6 + libmatroska v1.4.9
DURATION : 00:44:33.216000000
NUMBER_OF_FRAMES : 83538
NUMBER_OF_BYTES : 85542912
_STATISTICS_WRITING_APP : mkvmerge v26.0.0 ('In The Game') 64-bit
_STATISTICS_WRITING_DATE_UTC : 2018-09-22 21:01:48
_STATISTICS_TAGS : BPS DURATION NUMBER_OF_FRAMES NUMBER_OF_BYTES
Attachment : Yes / Yes / Yes / Yes / Yes / Yes / Yes / Yes / Yes / Yes / Yes / Yes
Видео
Идентификатор : 1
Формат : AVC
Формат/Информация : Advanced Video Codec
Профиль формата : High@L4.1
Параметр CABAC формата : Да
Параметр ReFrames формата : 4 кадра
Идентификатор кодека : V_MPEG4/ISO/AVC
Продолжительность : 44 м.
Вид битрейта : Переменный
Битрейт : 26,8 Мбит/сек
Максимальный битрейт : 38,0 Мбит/сек
Ширина : 1920 пикс.
Высота : 1080 пикс.
Соотношение сторон : 16:9
Режим частоты кадров : Постоянный
Частота кадров : 23,976 кадр/сек
Цветовое пространство : YUV
Подвыборка цветности : 4:2:0
Битовая глубина : 8 бит
Тип развёртки : Прогрессивная
Бит/(Пиксели*Кадры) : 0.538
Размер потока : 8,33 Гбайт (78%)
Default : Да
Forced : Нет
Аудио #1
Идентификатор : 2
Формат : AC-3
Формат/Информация : Audio Coding 3
Расширение режима : CM (complete main)
Параметр Endianness формата : Big
Идентификатор кодека : A_AC3
Продолжительность : 44 м.
Вид битрейта : Постоянный
Битрейт : 256 Кбит/сек
Каналы : 2 канала
Расположение каналов : Front: L R
Частота : 48,0 КГц
Битовая глубина : 16 бит
Метод сжатия : С потерями
Размер потока : 81,6 Мбайт (1%)
Заголовок : Визгунов {VHS}
Язык : Russian
Default : Да
Forced : Нет
Аудио #2
Идентификатор : 3
Формат : DTS
Формат/Информация : Digital Theater Systems
Профиль формата : MA / Core
Идентификатор кодека : A_DTS
Продолжительность : 44 м.
Вид битрейта : Переменный
Битрейт : 1561 Кбит/сек / 1510 Кбит/сек
Каналы : 6 каналов
Расположение каналов : Front: L C R, Side: L R, LFE
Частота : 48,0 КГц
Битовая глубина : 24 бит
Метод сжатия : Без потерь / Lossy
Заголовок : Живов
Язык : Russian
Default : Нет
Forced : Нет
Аудио #3
Идентификатор : 4
Формат : AC-3
Формат/Информация : Audio Coding 3
Расширение режима : CM (complete main)
Параметр Endianness формата : Big
Идентификатор кодека : A_AC3
Продолжительность : 44 м.
Вид битрейта : Постоянный
Битрейт : 192 Кбит/сек
Каналы : 2 канала
Расположение каналов : Front: L R
Частота : 48,0 КГц
Битовая глубина : 16 бит
Метод сжатия : С потерями
Размер потока : 61,2 Мбайт (1%)
Заголовок : Селена Интернэшнл [ОРТ]
Язык : Russian
Default : Нет
Forced : Нет
Аудио #4
Идентификатор : 5
Формат : AC-3
Формат/Информация : Audio Coding 3
Расширение режима : CM (complete main)
Параметр Endianness формата : Big
Идентификатор кодека : A_AC3
Продолжительность : 44 м.
Вид битрейта : Постоянный
Битрейт : 192 Кбит/сек
Каналы : 2 канала
Расположение каналов : Front: L R
Частота : 48,0 КГц
Битовая глубина : 16 бит
Метод сжатия : С потерями
Размер потока : 61,2 Мбайт (1%)
Заголовок : Кипарис [Ren-TV]
Язык : Russian
Default : Нет
Forced : Нет
Аудио #5
Идентификатор : 6
Формат : AC-3
Формат/Информация : Audio Coding 3
Расширение режима : CM (complete main)
Параметр Endianness формата : Big
Идентификатор кодека : A_AC3
Продолжительность : 44 м.
Вид битрейта : Постоянный
Битрейт : 192 Кбит/сек
Каналы : 2 канала
Расположение каналов : Front: L R
Частота : 48,0 КГц
Битовая глубина : 16 бит
Метод сжатия : С потерями
Размер потока : 61,2 Мбайт (1%)
Заголовок : Room 13 [ТВ3]
Язык : Russian
Default : Нет
Forced : Нет
Аудио #6
Идентификатор : 7
Формат : AC-3
Формат/Информация : Audio Coding 3
Расширение режима : CM (complete main)
Параметр Endianness формата : Big
Идентификатор кодека : A_AC3
Продолжительность : 44 м.
Вид битрейта : Постоянный
Битрейт : 192 Кбит/сек
Каналы : 2 канала
Расположение каналов : Front: L R
Частота : 48,0 КГц
Битовая глубина : 16 бит
Метод сжатия : С потерями
Размер потока : 61,2 Мбайт (1%)
Заголовок : 2+2
Язык : Ukrainian
Default : Нет
Forced : Нет
Аудио #7
Идентификатор : 8
Формат : AC-3
Формат/Информация : Audio Coding 3
Расширение режима : CM (complete main)
Параметр Endianness формата : Big
Идентификатор кодека : A_AC3
Продолжительность : 44 м.
Вид битрейта : Постоянный
Битрейт : 192 Кбит/сек
Каналы : 2 канала
Расположение каналов : Front: L R
Частота : 48,0 КГц
Битовая глубина : 16 бит
Метод сжатия : С потерями
Размер потока : 61,2 Мбайт (1%)
Заголовок : СТБ
Язык : Ukrainian
Default : Нет
Forced : Нет
Аудио #8
Идентификатор : 9
Формат : DTS
Формат/Информация : Digital Theater Systems
Профиль формата : MA / Core
Идентификатор кодека : A_DTS
Продолжительность : 44 м.
Вид битрейта : Переменный
Битрейт : 4279 Кбит/сек / 1510 Кбит/сек
Каналы : 6 каналов
Расположение каналов : Front: L C R, Side: L R, LFE
Частота : 48,0 КГц
Битовая глубина : 24 бит
Метод сжатия : Без потерь / Lossy
Заголовок : English
Язык : English
Default : Нет
Forced : Нет
Текст #1
Идентификатор : 10
Формат : ASS
Идентификатор кодека : S_TEXT/ASS
Идентификатор кодека/Информация: Advanced Sub Station Alpha
Метод сжатия : Без потерь
Заголовок : Надписи {lostrator}
Язык : Russian
Default : Нет
Forced : Нет
Текст #2
Идентификатор : 11
Формат : ASS
Идентификатор кодека : S_TEXT/ASS
Идентификатор кодека/Информация: Advanced Sub Station Alpha
Метод сжатия : Без потерь
Заголовок : Русские {lostrator}
Язык : Russian
Default : Нет
Forced : Нет
Текст #3
Идентификатор : 12
Формат : PGS
Идентификатор кодека : S_HDMV/PGS
Идентификатор кодека/Информация: The same subtitle format used on BDs/HD-DVDs
Заголовок : English
Язык : English
Default : Нет
Forced : Нет

Если ваш рейтинг упадет ниже 0,3, вы не сможете скачивать торренты! Подробнее о рейтинге.

[erzsebet.org].t31138.torrent 
Торрент: Зарегистрирован [ 2019-01-30 05:33 ]

Скачать .torrent

Скачать

602 KB

Статус: проверено
Скачан: 0 раз
Размер: 239,31 GB
Поблагодарили: 0  Спасибо
terms.php
[Профиль]  [ЛС] 
Показать сообщения:    
Ответить на тему

Текущее время: 19-Авг 11:55

Часовой пояс: UTC + 3



Вы не можете начинать темы
Вы не можете отвечать на сообщения
Вы не можете редактировать свои сообщения
Вы не можете удалять свои сообщения
Вы не можете голосовать в опросах
Вы не можете прикреплять файлы к сообщениям
Вы можете скачивать файлы