Миллениум / Millennium / Сезон: 1 / Серии: 1-6 из 6 (Niels Arden Oplev, Daniel Alfredson) [2010, Швеция, Детектив, BDRip 720p] Original + rus sub

Ответить на тему
Статистика раздачи
Размер:  28,35 GB   |    Зарегистрирован:  3 месяца 27 дней   |    Скачан:  0 раз

Полного источника не было: Никогда

 
 
 
Автор Сообщение

erzsebet ®

Стаж: 17 лет

Сообщений: 73897

Создавать темы 22-Апр-2019 02:36  |  Сменить автора

[Цитировать] 

Миллениум / Millennium
Год выпуска: 2010
Страна: Швеция
Жанр: Детектив
Продолжительность: 9:17:27 (6 х ~01:33:00)
Перевод: cубтитры
Автор перевода: Кармен Видео / Einsatzleiter
Режиссёр: Niels Arden Oplev, Daniel Alfredson
В ролях:
Michael Nyqvist – Микаэль Блумквист, Noomi Rapace – Лисбет Саландер, Lena Endre – Эрика Бергер, Michalis Koutsogiannakis – Драган Арманский, Jacob Ericksson – Кристер Мальм, Tomas Köhler – «Чума», Sofia Ledarp – Малин Эрикссон, Annika Hallin – Анника Джаннини, Georgi Staykov - Александр Залаченко, Yasmine Garbi – Мириам Ву, Mikael Spreitz – Рональд Нидерман, Peter Andersson – Нильс Бьюрман
Описание: шведский телесериал, основанный на экранизациях трилогии Стига Ларссона «Миллениум» о детективе-журналисте Микаэле Блумквисте и девушке-хакере Лисбет Саландер.

Список серий
:
Девушка с татуировкой дракона (Män som hatar kvinnor / Мужчины, которые ненавидят женщин). Часть 1
Девушка с татуировкой дракона (Män som hatar kvinnor / Мужчины, которые ненавидят женщин). Часть 2
Девушка, которая играла с огнем (Flickan som lekte med elden). Часть 1
Девушка, которая играла с огнем (Flickan som lekte med elden). Часть 2
Девушка, которая взрывала воздушные замки (Luftslottet som sprängdes / Воздушный замок, который был взорван). Часть 1
Девушка, которая взрывала воздушные замки (Luftslottet som sprängdes / Воздушный замок, который был взорван). Часть 2
Качество: BDRip
Формат: MKV
Видео кодек: AVC
Аудио кодек: DTS
Видео: AVC, 1280x720, 24 fps, 4877 kbps, 0.22 бит/пиксель
Аудио: (оригинал) DTS, 48 kHz, 6 каналов, 1510 кбит/с
Субтитры: softsub (SRT)

MI

General
Unique ID : 239399887166633302920157745702656925243 (0xB41ABDBB338571C7B1529C2AF4D5DE3B)
Complete name : C:\MyTorrents\Millenium\E01.Man.som.hatar.kvinnor.Part.1.BluRay.x264.mkv
Format : Matroska
Format version : Version 2
File size : 4.23 GiB
Duration : 1h 32mn
Overall bit rate : 6 516 Kbps
Encoded date : UTC 2012-08-19 12:58:48
Writing application : mkvmerge v5.7.0 ('The Whirlwind') built on Jul 8 2012 20:08:51
Writing library : libebml v1.2.3 + libmatroska v1.3.0
Video
ID : 1
Format : AVC
Format/Info : Advanced Video Codec
Format profile : High@L4.1
Format settings, CABAC : Yes
Format settings, ReFrames : 8 frames
Codec ID : V_MPEG4/ISO/AVC
Duration : 1h 32mn
Bit rate : 4 877 Kbps
Nominal bit rate : 5 210 Kbps
Width : 1 280 pixels
Height : 720 pixels
Display aspect ratio : 16:9
Frame rate : 24.000 fps
Color space : YUV
Chroma subsampling : 4:2:0
Bit depth : 8 bits
Scan type : Progressive
Bits/(Pixel*Frame) : 0.220
Stream size : 3.16 GiB (75%)
Writing library : x264 core 88 r1471 1144615
Encoding settings : cabac=1 / ref=8 / deblock=1:-3:-3 / analyse=0x3:0x113 / me=umh / subme=9 / psy=1 / psy_rd=1.05:0.10 / mixed_ref=1 / me_range=32 / chroma_me=1 / trellis=2 / 8x8dct=1 / cqm=0 / deadzone=21,11 / fast_pskip=0 / chroma_qp_offset=-2 / threads=12 / sliced_threads=0 / nr=0 / decimate=1 / mbaff=0 / constrained_intra=0 / bframes=3 / b_pyramid=2 / b_adapt=2 / b_bias=0 / direct=3 / wpredb=1 / wpredp=2 / keyint=250 / keyint_min=25 / scenecut=40 / intra_refresh=0 / rc_lookahead=60 / rc=2pass / mbtree=1 / bitrate=5210 / ratetol=1.0 / qcomp=0.60 / qpmin=10 / qpmax=51 / qpstep=4 / cplxblur=20.0 / qblur=0.5 / vbv_maxrate=50000 / vbv_bufsize=50000 / ip_ratio=1.40 / aq=1:0.60
Language : Swedish
Default : Yes
Forced : No
Audio
ID : 2
Format : DTS
Format/Info : Digital Theater Systems
Codec ID : A_DTS
Duration : 1h 32mn
Bit rate mode : Constant
Bit rate : 1 510 Kbps
Channel(s) : 6 channels
Channel positions : Front: L C R, Side: L R, LFE
Sampling rate : 48.0 KHz
Bit depth : 24 bits
Compression mode : Lossy
Stream size : 1 003 MiB (23%)
Language : Swedish
Default : Yes
Forced : No
Text
ID : 3
Format : UTF-8
Codec ID : S_TEXT/UTF8
Codec ID/Info : UTF-8 Plain Text
Language : Russian
Default : Yes
Forced : No

Скриншоты

Если ваш рейтинг упадет ниже 0,3, вы не сможете скачивать торренты! Подробнее о рейтинге.

[erzsebet.org].t41697.torrent 
Торрент: Зарегистрирован [ 2019-04-22 02:36 ]

Скачать .torrent

Скачать

143 KB

Статус: проверено
Скачан: 0 раз
Размер: 28,35 GB
Поблагодарили: 0  Спасибо
terms.php
[Профиль]  [ЛС] 
Показать сообщения:    
Ответить на тему

Текущее время: 19-Авг 11:53

Часовой пояс: UTC + 3



Вы не можете начинать темы
Вы не можете отвечать на сообщения
Вы не можете редактировать свои сообщения
Вы не можете удалять свои сообщения
Вы не можете голосовать в опросах
Вы не можете прикреплять файлы к сообщениям
Вы можете скачивать файлы