История Дэвида Копперфилда / The Personal History of David Copperfield (Армандо Ианнуччи) [2019, Драма, комедия, экранизация, BDRip 720p] DUB [iTunes]

Ответить на тему
Статистика раздачи
Размер:  5.84 GB   |    Зарегистрирован:  3 месяца 26 дней   |    Скачан:  0 раз
Сидов:  1   Личеров:  1  
 
 
Автор Сообщение

erzsebet ®

Стаж: 18 лет

Сообщений: 1411452

Откуда: Венгрия

Создавать темы 01-Окт-2020 01:45  |  Сменить автора

[Цитировать] 

История Дэвида Копперфилда / The Personal History of David Copperfield«От тряпок до богатства ... и обратно »- Информация о фильме
Год выхода: 2019
Страна: Великобритания, США / Film 4, FilmNation Entertainment, Searchlight Pictures
Жанр: Драма, комедия, экранизация
Продолжительность: 01:59:45
Перевод: Дублированный | iTunes
Cубтитры: Русские (2 x full), английские- Режиссер: Армандо Ианнуччи- В ролях: Дев Патель, Хью Лори, Тильда Суинтон, Фисайо Акинаде, Никки Амука-Бёрд, Элби Эткинсон, Анейрин Барнард, Тувэйн Барретт, Найджел Беттс, Руби Бенталл, Даррен Бойд, Питер Капальди, Гвендолин Кристи-О фильме
История Дэвида Копперфилда началась в кипящем от событий Лондоне, где перемешались большие деньги, модные районы и предприниматели всех мастей. Пройдя путь от неприкаянного ребенка до известного писателя, он всего добивался сам и был готов на безумство ради любви. Копперфилд - это живой символ эпохи, в которую хочется возвращаться вновь и вновь.
--Файл
Качество: BDRip 720p
Формат: mkv
Видео кодек: AVC
Аудио кодек: AC3
Видео: MPEG-4 AVC, 1280x536, 5957 Кbit/s, 23.976 fps
Аудио #1: 48 kHz, AC3, 5.1, 384 Kbps | iTunes | RUS|
Аудио #2: 48 kHz, AC3, 5.1, 640 Kbps | Оригинал | ENG

MediaInfo

Код: copyText_writeLink('this.parentNode.parentNode.nextSibling.nextSibling');
General
Unique ID : 161291023496878506268876148219871767510 (0x7957856CCBDCBE1B821FA3D0AAFC2BD6)
Complete name : D:\Video111\The.Personal.History.of.David.Copperfield.2019.BDRip.720p.seleZen.mkv
Format : Matroska
Format version : Version 4
File size : 5.84 GiB
Duration : 1 h 59 min
Overall bit rate : 6 984 kb/s
Movie name : The Personal History of David Copperfield 2019 from селезень
Encoded date : UTC 2020-09-16 18:40:10
Writing application : mkvmerge v40.0.0 ('Old Town Road + Pony') 64-bit
Writing library : libebml v1.3.9 + libmatroska v1.5.2
Video
ID : 1
Format : AVC
Format/Info : Advanced Video Codec
Format profile : [email protected]
Format settings : CABAC / 12 Ref Frames
Format settings, CABAC : Yes
Format settings, Reference : 12 frames
Codec ID : V_MPEG4/ISO/AVC
Duration : 1 h 59 min
Bit rate : 5 957 kb/s
Width : 1 280 pixels
Height : 536 pixels
Display aspect ratio : 2.40:1
Frame rate mode : Constant
Frame rate : 23.976 (24000/1001) FPS
Color space : YUV
Chroma subsampling : 4:2:0
Bit depth : 8 bits
Scan type : Progressive
Bits/(Pixel*Frame) : 0.362
Stream size : 4.98 GiB (85%)
Title : iFT
Writing library : x264 core 161 r3007+56M ~ Encoded by Mocunaman in Portugal
Encoding settings : cabac=1 / ref=12 / deblock=1:-3:-3 / analyse=0x3:0x113 / me=umh / subme=11 / psy=1 / fade_compensate=0.00 / psy_rd=1.00:0.00 / mixed_ref=1 / me_range=32 / chroma_me=1 / trellis=2 / 8x8dct=1 / cqm=0 / deadzone=21,11 / fast_pskip=0 / chroma_qp_offset=-2 / threads=17 / lookahead_threads=2 / sliced_threads=0 / nr=0 / decimate=0 / interlaced=0 / bluray_compat=0 / constrained_intra=0 / fgo=0 / bframes=8 / b_pyramid=2 / b_adapt=2 / b_bias=0 / direct=3 / weightb=1 / open_gop=0 / weightp=2 / keyint=250 / keyint_min=23 / scenecut=40 / intra_refresh=0 / rc_lookahead=60 / rc=crf / mbtree=0 / crf=16.0000 / qcomp=0.60 / qpmin=0:0:0 / qpmax=69:69:69 / qpstep=4 / vbv_maxrate=62500 / vbv_bufsize=78125 / crf_max=0.0 / nal_hrd=none / filler=0 / ip_ratio=1.30 / pb_ratio=1.20 / aq=3:0.80 / aq-sensitivity=10.00 / aq-factor=1.00:1.00:1.00 / aq2=0 / aq3=0 / zones=25728,26681,crf=15/35745,35933,crf=15.5/40037,40445,crf=15/70547,716165,crf=15.5/144558,144749,crf=15.5/155022,155862,crf=15/157623,160225,crf=15
Language : English
Default : Yes
Forced : No
Color range : Limited
Color primaries : BT.709
Transfer characteristics : BT.709
Matrix coefficients : BT.709
Audio #1
ID : 2
Format : AC-3
Format/Info : Audio Coding 3
Commercial name : Dolby Digital
Codec ID : A_AC3
Duration : 1 h 59 min
Bit rate mode : Constant
Bit rate : 384 kb/s
Channel(s) : 6 channels
Channel layout : L R C LFE Ls Rs
Sampling rate : 48.0 kHz
Frame rate : 31.250 FPS (1536 SPF)
Compression mode : Lossy
Stream size : 328 MiB (5%)
Title : iTunes
Language : Russian
Service kind : Complete Main
Default : Yes
Forced : Yes
Audio #2
ID : 3
Format : AC-3
Format/Info : Audio Coding 3
Commercial name : Dolby Digital
Codec ID : A_AC3
Duration : 1 h 59 min
Bit rate mode : Constant
Bit rate : 640 kb/s
Channel(s) : 6 channels
Channel layout : L R C LFE Ls Rs
Sampling rate : 48.0 kHz
Frame rate : 31.250 FPS (1536 SPF)
Compression mode : Lossy
Stream size : 548 MiB (9%)
Title : Original
Language : English
Service kind : Complete Main
Default : No
Forced : No
Text #1
ID : 4
Format : UTF-8
Codec ID : S_TEXT/UTF8
Codec ID/Info : UTF-8 Plain Text
Duration : 1 h 55 min
Bit rate : 125 b/s
Count of elements : 2042
Stream size : 106 KiB (0%)
Title : Full [iTunes]
Language : Russian
Default : No
Forced : No
Text #2
ID : 5
Format : UTF-8
Codec ID : S_TEXT/UTF8
Codec ID/Info : UTF-8 Plain Text
Duration : 1 h 56 min
Bit rate : 133 b/s
Count of elements : 1850
Stream size : 114 KiB (0%)
Title : Full [FOCS]
Language : Russian
Default : No
Forced : No
Text #3
ID : 6
Format : UTF-8
Codec ID : S_TEXT/UTF8
Codec ID/Info : UTF-8 Plain Text
Duration : 1 h 58 min
Bit rate : 78 b/s
Count of elements : 1838
Stream size : 67.7 KiB (0%)
Title : Full
Language : English
Default : No
Forced : No
Text #4
ID : 7
Format : UTF-8
Codec ID : S_TEXT/UTF8
Codec ID/Info : UTF-8 Plain Text
Duration : 1 h 58 min
Bit rate : 83 b/s
Count of elements : 1943
Stream size : 72.4 KiB (0%)
Title : SDH
Language : English
Default : No
Forced : No
Menu
00:00:00.000 : en:Chapter 01
00:04:55.879 : en:Chapter 02
00:14:56.395 : en:Chapter 03
00:23:55.017 : en:Chapter 04
00:33:04.983 : en:Chapter 05
00:42:44.395 : en:Chapter 06
00:51:51.942 : en:Chapter 07
01:03:33.935 : en:Chapter 08
01:12:23.339 : en:Chapter 09
01:23:47.898 : en:Chapter 10
01:36:58.604 : en:Chapter 11
01:49:34.193 : en:Chapter 12

Скриншоты

© Оформление by ilyash_rekviem erzsebet.org
[erzsebet.org].t2985536.torrent
Торрент: Зарегистрирован [ 2020-10-01 01:45 ]

Скачать .torrent

Скачать

30 KB

Статус: проверено
Скачан: 0 раз
Размер: 5.84 GB
Поблагодарили: 0  Спасибо
terms.php
[Профиль]  [ЛС] 
Показать сообщения:    
Ответить на тему

Текущее время: 27-Янв 23:15

Часовой пояс: UTC + 3



Вы не можете начинать темы
Вы не можете отвечать на сообщения
Вы не можете редактировать свои сообщения
Вы не можете удалять свои сообщения
Вы не можете голосовать в опросах
Вы не можете прикреплять файлы к сообщениям
Вы можете скачивать файлы