Евгений Гришковец - Планета [2005, Спектакль, DVDRip]

Ответить на тему
Статистика раздачи
Размер:  697 MB   |    Зарегистрирован:  1 месяц 18 дней   |    Скачан:  0 раз
Сидов:  1   Личеров:  1  
 
 
Автор Сообщение

erzsebet ®

Стаж: 18 лет

Сообщений: 987579

Откуда: Венгрия

Создавать темы 07-Окт-2020 14:01  |  Сменить автора

[Цитировать] 

Планета
Жанр: Спектакль
Режиссер: Е. Гришковец
Страна: РОССИЯ
Год выхода: 2005 (видеоверсии)
Продолжительность: 118 минут
В ролях: Е.Гришковец, А.Дубровская
Описание:
Планета под названием Евгений Гришковец занимает совершенно отдельное место в нашей театральной солнечной системе. Пожалуй, это планета наиболее приближенная к солнцу — его странные м пространные монологи светлы, печальны, и, несмотря на явные приметы сегодняшнего дня, существуют вне времени и пространства. Гришковец не стесняется говорить о вещах глубоко интимных и сентиментальных — одним из важнейших тайн театра — искусством публичного одиночества он владеет в совершенстве. Гришковец весь состоит из противоречий — он не москвич, из Кемерова, но в нем нет ни капли провинциальности. По образованию он филолог, но тексты его лишены литературщины и фальшивого пафоса. Он никогда не работал в профессиональном театре, но актерские навыки выдают в нем абсолютного профессионала. Он невысок, некрасив и близорук — но обладает уникальным магнетическим обаянием, тем, что сводит с ума женщин. Он умеет превращать банальности в абсолютные откровения, владеет языком интимного дневника, того, что пишется не для сторонних глаз, и уж тем более не для публикации. Тексты его пестрят многоточиями, фразы обрываются внезапно, так дурацкие нелепые мысли лезут к нам в голову в минуты засыпания, лезут, толкаются, вырываясь из уставшей от дневной суеты головы. Это конечно, не драматургия, в ее традиционном понимании и попытка Гришковца предложить свои монологи для театра вряд ли увенчается успехом. Можно только попытаться сыграть Гришковца, который собственно и является главным и единственным персонажем этого театра.
В спектакле "Планета" Гришковец выпервые обзавелся партнершей — это актриса вахтанговского театра Анна Дубровская. Партнершей в чистом виде ее не назовешь — прямого общения между героями не происходит, они существуют в параллельных мирах, слегка задевая друг друга плечами или дыханием.
"Планета" — уже зрелище, а не только набор смыслов. В "Планете" есть элементы театральности — которые продолжают жить по своим законам уже в отсутствии слов. Планета похожа на светящийся глобус, что стоит настольной лампой в маленькой комнате обычной городской квартиры. И если приглядеться, то можно рассмотреть мосты и дороги, по которым движутся маленькие машинки с крошечными дворниками, капли дождя на лобовом стекле, можно услышать мелодию, которую насвистывает водитель, можно заглянуть в промелькнувшее мимо окно, прочесть название книжки, что читает незнакомая девушка с яблоком, можно даже услышать обрывок ее телефонного разговора и почувствовать запах ее духов… А чуть поднимешь голову — и вновь реки превращаются в голубые прожилки, леса в зеленые кляксы, многоэтажные дома в спичечные коробки, а люди и вовсе не попадут в поле зрения по причине своей малюсенькости. Мир Гришковца осязаем, он имеет и цвет, и вкус и запах, этот мир можно ощупывать руками и непременно найти, обнаружить в нем место для себя. Оно точно есть.
Качество: DVDRip
Формат: AVI
Видео кодек: DivX
Аудио кодек: MP3
Видео: DivX 5 704x528 25fps
Аудио: MP3 44100Hz stereo 128kbps

Скриншоты

Тех. данные

General
Format : AVI
Format/Info : Audio Video Interleave
File size : 697 MiB
Duration : 1 h 57 min
Overall bit rate : 831 kb/s
Video
ID : 0
Format : MPEG-4 Visual
Format settings, BVOP : 1
Format settings, QPel : No
Format settings, GMC : No warppoints
Format settings, Matrix : Default (H.263)
Muxing mode : Packed bitstream
Codec ID : DX50
Codec ID/Hint : DivX 5
Duration : 1 h 57 min
Bit rate : 694 kb/s
Nominal bit rate : 8 000 kb/s
Width : 704 pixels
Height : 528 pixels
Display aspect ratio : 4:3
Frame rate : 25.000 FPS
Color space : YUV
Chroma subsampling : 4:2:0
Bit depth : 8 bits
Scan type : Progressive
Compression mode : Lossy
Bits/(Pixel*Frame) : 0.075
Stream size : 582 MiB (83%)
Title : Video
Writing library : DivX 5.2.1 Alpha (UTC 2004-09-08)
Audio
ID : 1
Format : MPEG Audio
Format version : Version 1
Format profile : Layer 3
Codec ID : 55
Codec ID/Hint : MP3
Duration : 1 h 57 min
Bit rate mode : Constant
Bit rate : 128 kb/s
Channel(s) : 2 channels
Sampling rate : 44.1 kHz
Compression mode : Lossy
Stream size : 107 MiB (15%)
Alignment : Split accross interleaves
Interleave, duration : 40 ms (1.00 video frame)
Interleave, preload duration : 500 ms
Title : Audio
[erzsebet.org].t3008410.torrent
Торрент: Зарегистрирован [ 2020-10-07 14:01 ]

Скачать .torrent

Скачать

14 KB

Статус: проверено
Скачан: 0 раз
Размер: 697 MB
Поблагодарили: 0  Спасибо
terms.php
Связанные раздачи
Добавлен Темы Размер S / L Ссылка
26-Окт-20 02:27 Планета. Евгений Гришковец (Владимир Алексеев) [2005, Телеверсия спектакля, DVDRip]Отв. 0 1.37 GB | Скачать .torrent
26-Окт-20 01:49 Евгений Гришковец - Планета (Владимир Алексеев) [2005, Телевизионный спектакль, DVD5]Отв. 0 4.32 GB | Скачать .torrent
24-Фев-20 17:56 Евгений Гришковец: Планета (Владимир Алексеев) [2005, Телевизионный спектакль, DVD9]Отв. 0 7.41 GB | Скачать .torrent
[Профиль]  [ЛС] 
Показать сообщения:    
Ответить на тему

Текущее время: 25-Ноя 23:18

Часовой пояс: UTC + 3



Вы не можете начинать темы
Вы не можете отвечать на сообщения
Вы не можете редактировать свои сообщения
Вы не можете удалять свои сообщения
Вы не можете голосовать в опросах
Вы не можете прикреплять файлы к сообщениям
Вы можете скачивать файлы