Seal - 20 Years Video [2010, Pop, DVDRip-AVC]

Ответить на тему
Статистика раздачи
Размер:  3.44 GB   |    Зарегистрирован:  1 месяц 20 дней   |    Скачан:  0 раз
Сидов:  1   Личеров:  1  
 
 
Автор Сообщение

erzsebet ®

Стаж: 18 лет

Сообщений: 1015767

Откуда: Венгрия

Создавать темы 08-Окт-2020 18:39  |  Сменить автора

[Цитировать] 

Seal - 20 Years Video-Год выпуска: 2010
Страна: США
Жанр: Pop, Клип
Продолжительность: 00:41:42 + 01:00:44
Описание: Коллекция музыкальных клипов.-

Tрэклист

Disc One:
01. Amazing (2007)
02. Future Love Paradise (1991)
03. Crazy (1991)
04. My Vision (2007) with 'Jakatta'
05. I Can't Stand The Rain (2008)
06. Killer (1991)
07. Kiss From A Rose (1995)
08. Les Mots (2001) with 'Mylene Farmer'
09. Deep Water (1992)
10. The Beginning (1991)
Disc Two:
01. Secret (2010) with Heidi Klum
02. Human Beings (1998)
03. I've Been Loving You (2008)
04. Killer (2005) 'Peter Rauhofer Remix. Part 2'
05. If I Could Ever Make You Love Me (2010) 'Recording Studio'
06. Don't Cry (1994)
07. A Change Is Gonna Come (2008)
08. Love's Divine (2003)
09. The Right Life (2007)
10. It's A Man's Man's World (2008)
11. Walk On By (2004)
12. Get It Together (2003)
13. Prayer For The Dying (1994)
14. People Get Ready (2008)
15. Waiting For You (2003)
-Качество: DVDRip-AVC (сохранены оригинальные чаптеры как на DVD)
Формат: MKV
Видео кодек: AVC
Аудио кодек: AC3
Видео 1: PAL 4:3 (720x540), 25.000 fps, MPEG-4 AVC, 4580 Кбит/с, 0.471 bit/pixel
Видео 2: NTSC 4:3 (720x480), 29.970 fps, MPEG-4 AVC, 4308 Кбит/с, 0.416 bit/pixel
Аудио: English (AC3, 48KHz, 6 ch, 448 Кбит/с)

Скриншоты

Media Info - Disc One

Формат : Matroska
Версия формата : Version 4 / Version 2
Размер файла : 1,42 Гбайт
Продолжительность : 41 м.
Общий поток : 4883 Кбит/сек
Название фильма : Seal - 20 Years Video (1991-2010) Disc One
Дата кодирования : UTC 2017-01-18 17:38:38
Программа кодирования : mkvmerge v7.6.0 ('Garden of Dreams') 64bit built on Feb 8 2015 13:04:34
Библиотека кодирования : libebml v1.3.1 + libmatroska v1.4.2
Видео
Идентификатор : 1
Формат : AVC
Формат/Информация : Advanced Video Codec
Профиль формата : [email protected]
Параметр CABAC формата : Да
Параметр ReFrames формата : 2 кадра
Идентификатор кодека : V_MPEG4/ISO/AVC
Продолжительность : 41 м.
Битрейт : 4580 Кбит/сек
Ширина : 720 пикселей
Высота : 540 пикселей
Соотношение сторон : 4:3
Режим частоты кадров : Постоянный
Частота кадров : 25,000 кадров/сек
Стандарт вещания : PAL
Цветовое пространство : YUV
Субдискретизация насыщенности : 4:2:0
Битовая глубина : 8 бит
Тип развёртки : MBAFF
Метод сохранения типа развёртки : Чередующиеся поля
Порядок развёртки : Верхнее поле первое
Бит/(Пиксели*Кадры) : 0.471
Размер потока : 1,29 Гбайт (91%)
Библиотека кодирования : x264 core 144 r2525
Настройки программы : cabac=1 / ref=2 / deblock=1:0:0 / analyse=0x1:0x131 / me=umh / subme=9 / psy=1 / psy_rd=1.00:0.10 / mixed_ref=0 / me_range=64 / chroma_me=1 / trellis=1 / 8x8dct=0 / cqm=0 / deadzone=21,11 / fast_pskip=1 / chroma_qp_offset=-3 / threads=12 / lookahead_threads=1 / sliced_threads=0 / nr=0 / decimate=1 / interlaced=tff / bluray_compat=0 / constrained_intra=0 / bframes=0 / weightp=0 / keyint=250 / keyint_min=25 / scenecut=0 / intra_refresh=0 / rc_lookahead=0 / rc=2pass / mbtree=0 / bitrate=4580 / ratetol=1.0 / qcomp=0.60 / qpmin=10 / qpmax=69 / qpstep=4 / cplxblur=20.0 / qblur=0.5 / vbv_maxrate=4580 / vbv_bufsize=14000 / nal_hrd=none / filler=0 / ip_ratio=1.40 / aq=0
Default : Да
Forced : Нет
Цветовой диапазон : Limited
Аудио
Идентификатор : 2
Формат : AC-3
Формат/Информация : Audio Coding 3
Расширение режима : CM (complete main)
Параметр Endianness формата : Big
Идентификатор кодека : A_AC3
Продолжительность : 41 м.
Вид битрейта : Постоянный
Битрейт : 448 Кбит/сек
Каналы : 6 каналов
Расположение каналов : Front: L C R, Side: L R, LFE
Частота : 48,0 КГц
Частота кадров : 31,250 кадров/сек (1536 spf)
Метод сжатия : С потерями
Задержка видео : -40 мс.
Размер потока : 134 Мбайт (9%)
Язык : English
Default : Да
Forced : Нет
Меню
00:00:00.000 : :Start
00:00:10.800 : :01. Amazing (2007)
00:03:20.400 : :02. Future Love Paradise (1991)
00:08:00.520 : :03. Crazy (1991)
00:12:42.400 : :04. My Vision (2007) with 'Jakatta'
00:16:35.400 : :05. I Can't Stand The Rain (2008)
00:20:23.400 : :06. Killer (1991)
00:24:23.080 : :07. Kiss From A Rose (1995)
00:28:16.360 : :08. Les Mots (2001) with 'Mylene Farmer'
00:33:34.920 : :09. Deep Water (1992)
00:37:26.480 : :10. The Beginning (1991)

Media Info - Disc Two

Формат : Matroska
Версия формата : Version 4 / Version 2
Размер файла : 2,02 Гбайт
Продолжительность : 1 ч. 0 м.
Общий поток : 4758 Кбит/сек
Название фильма : Seal - 20 Years Video (1991-2010) Disc Two
Дата кодирования : UTC 2017-01-18 17:53:57
Программа кодирования : mkvmerge v7.6.0 ('Garden of Dreams') 64bit built on Feb 8 2015 13:04:34
Библиотека кодирования : libebml v1.3.1 + libmatroska v1.4.2
Видео
Идентификатор : 1
Формат : AVC
Формат/Информация : Advanced Video Codec
Профиль формата : [email protected]
Параметр CABAC формата : Да
Параметр ReFrames формата : 2 кадра
Идентификатор кодека : V_MPEG4/ISO/AVC
Продолжительность : 1 ч. 0 м.
Битрейт : 4308 Кбит/сек
Номинальный битрейт : 4580 Кбит/сек
Ширина : 720 пикселей
Высота : 480 пикселей
Соотношение сторон : 4:3
Режим частоты кадров : Постоянный
Частота кадров : 29,970 (30000/1001) кадров/сек
Стандарт вещания : NTSC
Цветовое пространство : YUV
Субдискретизация насыщенности : 4:2:0
Битовая глубина : 8 бит
Тип развёртки : MBAFF
Метод сохранения типа развёртки : Чередующиеся поля
Порядок развёртки : Верхнее поле первое
Бит/(Пиксели*Кадры) : 0.416
Размер потока : 1,83 Гбайт (91%)
Библиотека кодирования : x264 core 144 r2525
Настройки программы : cabac=1 / ref=2 / deblock=1:0:0 / analyse=0x1:0x131 / me=umh / subme=9 / psy=1 / psy_rd=1.00:0.10 / mixed_ref=0 / me_range=64 / chroma_me=1 / trellis=1 / 8x8dct=0 / cqm=0 / deadzone=21,11 / fast_pskip=1 / chroma_qp_offset=-3 / threads=12 / lookahead_threads=1 / sliced_threads=0 / nr=0 / decimate=1 / interlaced=tff / bluray_compat=0 / constrained_intra=0 / bframes=0 / weightp=0 / keyint=299 / keyint_min=29 / scenecut=0 / intra_refresh=0 / rc_lookahead=0 / rc=2pass / mbtree=0 / bitrate=4580 / ratetol=1.0 / qcomp=0.60 / qpmin=10 / qpmax=69 / qpstep=4 / cplxblur=20.0 / qblur=0.5 / vbv_maxrate=4580 / vbv_bufsize=14000 / nal_hrd=none / filler=0 / ip_ratio=1.40 / aq=0
Default : Да
Forced : Нет
Цветовой диапазон : Limited
Аудио
Идентификатор : 2
Формат : AC-3
Формат/Информация : Audio Coding 3
Расширение режима : CM (complete main)
Параметр Endianness формата : Big
Идентификатор кодека : A_AC3
Продолжительность : 1 ч. 0 м.
Вид битрейта : Постоянный
Битрейт : 448 Кбит/сек
Каналы : 6 каналов
Расположение каналов : Front: L C R, Side: L R, LFE
Частота : 48,0 КГц
Частота кадров : 31,250 кадров/сек (1536 spf)
Метод сжатия : С потерями
Задержка видео : -33 мс.
Размер потока : 195 Мбайт (9%)
Язык : English
Default : Да
Forced : Нет
Меню
00:00:00.000 : :Start
00:00:10.800 : :01. Secret (2010) with Heidi Klum
00:03:29.100 : :02. Human Beings (1998)
00:07:41.000 : :03. I've Been Loving You (2008)
00:11:15.067 : :04. Killer (2005) 'Peter Rauhofer Remix. Part 2'
00:15:49.900 : :05. If I Could Ever Make You Love Me (2010) 'Recording Studio'
00:20:27.000 : :06. Don't Cry (1994)
00:25:06.500 : :07. A Change Is Gonna Come (2008)
00:29:11.933 : :08. Love's Divine (2003)
00:33:58.033 : :09. The Right Life (2007)
00:38:17.033 : :10. It's A Man's Man's World (2008)
00:42:23.700 : :11. Walk On By (2004)
00:45:47.167 : :12. Get It Together (2003)
00:49:42.800 : :13. Prayer For The Dying (1994)
00:53:53.900 : :14. People Get Ready (2008)
00:57:41.000 : :15. Waiting For You (2003)
[erzsebet.org].t3011618.torrent
Торрент: Зарегистрирован [ 2020-10-08 18:39 ]

Скачать .torrent

Скачать

18 KB

Статус: проверено
Скачан: 0 раз
Размер: 3.44 GB
Поблагодарили: 0  Спасибо
terms.php
[Профиль]  [ЛС] 
Показать сообщения:    
Ответить на тему

Текущее время: 29-Ноя 04:22

Часовой пояс: UTC + 3



Вы не можете начинать темы
Вы не можете отвечать на сообщения
Вы не можете редактировать свои сообщения
Вы не можете удалять свои сообщения
Вы не можете голосовать в опросах
Вы не можете прикреплять файлы к сообщениям
Вы можете скачивать файлы