Русский перевод / Серии: 1-8 из 8 (Александр Черняев) [2006, детектив, DVDRip]

Ответить на тему
Статистика раздачи
Размер:  5.79 GB   |    Зарегистрирован:  1 месяц 18 дней   |    Скачан:  0 раз
Сидов:  1   Личеров:  1  
 
 
Автор Сообщение

erzsebet ®

Стаж: 18 лет

Сообщений: 1016148

Откуда: Венгрия

Создавать темы 10-Окт-2020 09:35  |  Сменить автора

[Цитировать] 

Русский перевод
«Ему суждено стать участником грязных политических интриг, кровавого военного переворота, встретить свою любовь и найти верного друга. Но все потерять...»
Год выпуска: 2006
Производство: НТВ - Кино
Жанр: детектив
Продолжительность: 8 x ~ 00:51:00
Режиссёр: Александр Черняев
В ролях: Никита Зверев, Марина Черняева, Павел Новиков, Андрей Фролов, Сергей Векслер, Александр Пашутин, Рамиль Сабитов, Сергей Шеховцов, Александр Яковлев, Александр Цуркан, Владимир Горюшин, Иван Моховиков, Татьяна Абрамова, Владимир Епифанцев, Антон Кукушкин, Николай Лещуков, Александр Макогон, Роман Нестеренко, Михаил Полицеймако, Павел Сметанкин, Алёна Яковлева, Сергей Селин, Александр Тютин, Антон Эльдаров, Александр Аблязов, Константин Карасик, Роман Кириллов, Кирилл Плетнев, Фирдовси Атакишиев, Шота Гамисония, Фуад Османов, Алексей Ошурков, Денис Ясик, Дмитрий Ячевский, Александр Пашковский, Дмитрий Поднозов, Сергей Юшкевич и др.
Описание: 1985 год. Молодой военный переводчик-арабист Андрей Обнорский оказывается на практике в Народно-Демократической Республике Йемен, где работает группа советских военных советников, помогающих формировать и обучать йеменскую армию. Прямиком со студенческой скамьи юноша попадает в бурный водоворот событий — настоящая африканская жара, противостояние южан и северян некогда единого йеменского государства, политические распри в самой НДРЙ, вылившиеся в военный переворот, наконец, игры советских спецслужб.
Андрей принимает участие в боевых действиях, становится свидетелем военного переворота и резни в Адене, невольно оказывается в центре истории с пропажей партии оружия, переправляемого советским руководством палестинцам транзитом через Йемен. Но здесь же, в этой раскаленной от солнца стране, Андрей встречает свою любовь и находит верного друга.
Спустя несколько лет военный переводчик лейтенант Обнорский направлен в очередную командировку — в Ливию. Он хочет забыть прежние кошмары и ожидает встречи с другом по йеменской практике. Но вместо этого Андрею предстоит вести опасное расследование обстоятельств его сомнительного самоубийства и воскресить призраков прошлого. Он снова узнает многое из того, о чем, возможно, предпочел бы никогда не слышать.
Доп. информация:
релиз -
исходник - 2xDVD9 R5 "DVD Land"
Все раздачи сериала: https://erzsebet.org.org/forum/tracker.php?nm=%D0%F3%F1%F1%EA%E8%E9+%EF%E5%F0%E5%E2%EE%E4
Сэмпл: http://multi-up.com/722067
Качество: DVDRip
Формат: AVI
Видео кодек: XviD
Аудио кодек: AC3
Видео: 704x384 (1.83:1), 25 fps, XviD build 65 ~1464 kbps avg, 0.22 bit/pixel
Аудио: 48 kHz, AC3 Dolby Digital, 3/2 (L,C,R,l,r) + LFE ch, ~448.00 kbps avg

MI

Русский перевод.DVDRip-SVAT\Русский перевод.01.DVDRip-SVAT.avi
Format : AVI
Format/Info : Audio Video Interleave
File size : 742 MiB
Duration : 53mn 56s
Overall bit rate : 1 923 Kbps
Writing application : VirtualDubMod 1.5.10.3 | www.virtualdub-fr.org || (build 2550/release)
Writing library : VirtualDubMod build 2550/release
Video
ID : 0
Format : MPEG-4 Visual
Format profile : Advanced [email protected]
Format settings, BVOP : 1
Format settings, QPel : No
Format settings, GMC : No warppoints
Format settings, Matrix : Custom
Codec ID : XVID
Codec ID/Hint : XviD
Duration : 53mn 56s
Bit rate : 1 465 Kbps
Width : 704 pixels
Height : 384 pixels
Display aspect ratio : 16:9
Frame rate : 25.000 fps
Color space : YUV
Chroma subsampling : 4:2:0
Bit depth : 8 bits
Scan type : Progressive
Compression mode : Lossy
Bits/(Pixel*Frame) : 0.217
Stream size : 565 MiB (76%)
Writing library : XviD 65
Audio
ID : 1
Format : AC-3
Format/Info : Audio Coding 3
Mode extension : CM (complete main)
Codec ID : 2000
Duration : 53mn 56s
Bit rate mode : Constant
Bit rate : 448 Kbps
Channel(s) : 6 channels
Channel positions : Front: L C R, Side: L R, LFE
Sampling rate : 48.0 KHz
Bit depth : 16 bits
Compression mode : Lossy
Stream size : 173 MiB (23%)
Alignment : Split accross interleaves
Interleave, duration : 40 ms (1.00 video frame)
Interleave, preload duration : 500 ms

Скриншоты

[erzsebet.org].t3024906.torrent
Торрент: Зарегистрирован [ 2020-10-10 09:35 ]

Скачать .torrent

Скачать

30 KB

Статус: проверено
Скачан: 0 раз
Размер: 5.79 GB
Поблагодарили: 0  Спасибо
terms.php
Связанные раздачи
Добавлен Темы Размер S / L Ссылка
24-Авг-20 18:54 Русский перевод / Серии: 1-8 из 8 (Александр Черняев) [2006, Россия, Детектив, DVD9] R5 "DVD Land / Классік"Отв. 0 7.82 GB | Скачать .torrent
17-Июн-20 11:49 Русский перевод / Серии: 1-8 из 8 (Александр Черняев) [2006, боевик, военный фильм, детектив, драма, приключения, WEBRip-AVC]Отв. 0 6.22 GB | Скачать .torrent
02-Авг-19 05:24 Русский перевод / Серии: 1-8 из 8 (Александр Черняев) [2006, Россия, Детектив, 2xDVD9] R5 "DVD Land"Отв. 0 15.08 GB | Скачать .torrent
04-Фев-19 18:45 Русский перевод / Серии: 1-8 из 8 (Александр Черняев) [2006, детектив, DVDRip]Отв. 0 6.45 GB | Скачать .torrent
[Профиль]  [ЛС] 
Показать сообщения:    
Ответить на тему

Текущее время: 29-Ноя 05:22

Часовой пояс: UTC + 3



Вы не можете начинать темы
Вы не можете отвечать на сообщения
Вы не можете редактировать свои сообщения
Вы не можете удалять свои сообщения
Вы не можете голосовать в опросах
Вы не можете прикреплять файлы к сообщениям
Вы можете скачивать файлы