Утиные Истории / DuckTales / Сезон: 3 / Серии: 1-5 из 13 (Дана Тиррас / Dana Terrace) [2020, США, Мультсериал, комедия, приключения, семейный, WEB-DL 1080p] Dub (Невафильм) + Original Eng + Sub (Rus, Eng)

Ответить на тему
Статистика раздачи
Размер:  3.32 GB   |    Зарегистрирован:  1 месяц 18 дней   |    Скачан:  0 раз
Сидов:  1   Личеров:  1  
 
 
Автор Сообщение

erzsebet ®

Стаж: 18 лет

Сообщений: 1015568

Откуда: Венгрия

Создавать темы 10-Окт-2020 17:39  |  Сменить автора

[Цитировать] 

Утиные Истории / DuckTales
Третий сезон
- Страна: США
Жанр: Мультсериал, комедия, приключения, семейный
Продолжительность серии: ~00:22:00
Год выпуска: 2020
Перевод: Профессиональный (дублированный)
Русские субтитры: есть-Режиссёр: Дана Тиррас / Dana Terrace
Роли озвучивали: Дэвид Теннант,Бен Шварц,Дэнни Пуди,Бобби Мойнахан,Кейт Микуччи,Бек Беннетт,Кит Фергюсон,Токс Олагундойе,Тони Ансельмо,Кари Уолгрен-Описание: «Утиные истории» (англ. DuckTales) — мультсериал студии Disney Television Animation, перезапуск известного одноимённого мультсериала 1987 года, приуроченный к его 30-летию.
Приключения миллионера Скруджа Макдака и его неугомонных племянников, которые путешествуют по всему миру в поисках невероятных сокровищ и несметных богатств.- -[box=Gold,DarkOrange]Сезон 1[/box][box=Gold,DarkOrange]Сезон 2[/box][box=Gold,DarkOrange]Сезон 2 (лок.)[/box][box=DarkOrange,Gold]Сезон 3[/box]
[box=#d2d2d2,#000000]Предыдущие и альтернативные раздачи[/box]-Запись с ТВ: TVRecordsKing PRO
Сведение звука и релиз: WORTEXSON
Студия дубляжа: "Невафильм" (По заказу Disney)-Качество: WEB-DL 1080p | Amazon
Формат: MKV
Видео: MPEG-4 AVC, 1920x1080, 23.976 fps, ~4000 kbps
Аудио 1: Dolby AC3, 48.0 kHz, 2ch, 192 Kbps
Аудио 2: Dolby Plus E-AC3, 48.0 kHz, 2 ch, 224 Kbps
Субтитры: Русские, английские-

Подробные технические данные

General
Unique ID : 187703229546354836715771896448284921084 (0x8D3653B92A5F5B579C67FBDB1C348CFC)
Complete name : K:\\DuckTales.2017.S03.1080.WEB-DL.Rus.Eng_WORTEXSON\DuckTales.2017.S03E01.Challenge.of.the.Senior.Junior.Woodchucks.1080p.AMZN.WEB-DL.Rus.Eng_WORTEXSON.mkv
Format : Matroska
Format version : Version 4
File size : 715 MiB
Duration : 22 min 34 s
Overall bit rate : 4 427 kb/s
Encoded date : UTC 2020-10-04 11:56:20
Writing application : mkvmerge v49.0.0 ('Sick Of Losing Soulmates') 64-bit
Writing library : libebml v1.4.0 + libmatroska v1.6.1
Video
ID : 1
Format : AVC
Format/Info : Advanced Video Codec
Format profile : [email protected]
Format settings : CABAC / 4 Ref Frames
Format settings, CABAC : Yes
Format settings, Reference fra : 4 frames
Codec ID : V_MPEG4/ISO/AVC
Duration : 22 min 34 s
Bit rate : 4 008 kb/s
Width : 1 920 pixels
Height : 1 080 pixels
Display aspect ratio : 16:9
Frame rate mode : Constant
Frame rate : 23.976 (24000/1001) FPS
Color space : YUV
Chroma subsampling : 4:2:0
Bit depth : 8 bits
Scan type : Progressive
Bits/(Pixel*Frame) : 0.081
Stream size : 647 MiB (91%)
Title : by WORTEXSON
Language : English
Default : Yes
Forced : No
Color range : Limited
Color primaries : BT.709
Transfer characteristics : BT.709
Matrix coefficients : BT.709
Audio #1
ID : 2
Format : AC-3
Format/Info : Audio Coding 3
Commercial name : Dolby Digital
Codec ID : A_AC3
Duration : 22 min 34 s
Bit rate mode : Constant
Bit rate : 192 kb/s
Channel(s) : 2 channels
Channel layout : L R
Sampling rate : 48.0 kHz
Frame rate : 31.250 FPS (1536 SPF)
Compression mode : Lossy
Stream size : 31.0 MiB (4%)
Title : AC3 2.0 @ 192 kbps RUS -> DUB, Nevafilm
Language : Russian
Service kind : Complete Main
Default : Yes
Forced : No
Audio #2
ID : 3
Format : E-AC-3
Format/Info : Enhanced AC-3
Commercial name : Dolby Digital Plus
Codec ID : A_EAC3
Duration : 22 min 34 s
Bit rate mode : Constant
Bit rate : 224 kb/s
Channel(s) : 2 channels
Channel layout : L R
Sampling rate : 48.0 kHz
Frame rate : 31.250 FPS (1536 SPF)
Compression mode : Lossy
Stream size : 36.2 MiB (5%)
Title : E-AC3 2.0 @ 224 kbps ENG -> Original
Language : English
Service kind : Complete Main
Default : No
Forced : No
Text #1
ID : 4
Format : UTF-8
Codec ID : S_TEXT/UTF8
Codec ID/Info : UTF-8 Plain Text
Duration : 22 min 3 s
Bit rate : 128 b/s
Count of elements : 413
Stream size : 20.8 KiB (0%)
Language : Russian
Default : No
Forced : No
Text #2
ID : 5
Format : UTF-8
Codec ID : S_TEXT/UTF8
Codec ID/Info : UTF-8 Plain Text
Duration : 22 min 6 s
Bit rate : 89 b/s
Count of elements : 511
Stream size : 14.5 KiB (0%)
Title : SDH
Language : English
Default : No
Forced : No

Скриншоты

[erzsebet.org].t3025421.torrent
Торрент: Зарегистрирован [ 2020-10-10 17:39 ]

Скачать .torrent

Скачать

18 KB

Статус: проверено
Скачан: 0 раз
Размер: 3.32 GB
Поблагодарили: 0  Спасибо
terms.php
[Профиль]  [ЛС] 
Показать сообщения:    
Ответить на тему

Текущее время: 29-Ноя 03:56

Часовой пояс: UTC + 3



Вы не можете начинать темы
Вы не можете отвечать на сообщения
Вы не можете редактировать свои сообщения
Вы не можете удалять свои сообщения
Вы не можете голосовать в опросах
Вы не можете прикреплять файлы к сообщениям
Вы можете скачивать файлы