Готэм / Gotham / Сезон: 5 / Серии: 1-10 из 12 (Дэнни Кэннон, Т.Дж. Скотт, Роб Бэйли) [2019, США, Триллер, драма, криминал, WEB-DL 1080p] MVO (NewStudio) + Original + Sub (Eng)

Ответить на тему
Статистика раздачи
Размер:  19.49 GB   |    Зарегистрирован:  1 месяц 7 дней   |    Скачан:  0 раз
Сидов:  1   Личеров:  1  
 
 
Автор Сообщение

erzsebet ®

Стаж: 18 лет

Сообщений: 987353

Откуда: Венгрия

Создавать темы 18-Окт-2020 05:11  |  Сменить автора

[Цитировать] 

Готэм | Gotham- Год выпуска: 2019
Страна: США
Жанр: Фантастика, боевик, триллер, драма, криминал, детектив
Продолжительность: ~ 00:45:00-Перевод: Профессиональный (многоголосый закадровый) | NewStudio-Режиссёр: Дэнни Кэннон, Роб Бэйли, Т.Дж. Скотт
В ролях: Бен МакКензи, Шон Пертуи, Робин Тейлор, Забрина Гевара, Эрин Ричардс, Донал Лог, Джада Пинкетт Смит, Дэвид Мазоуз, Камрен Бикондова, Кори Майкл Смит и др.-Описание: События первых серий пятого сезона по-прежнему будут основаны на популярной серии комиксов «Ничья земля». Когда правительство откажется помогать жителям Готэма, город погрузится в пучину хаоса. За несколько месяцев с начала блокады остров поделится на районы, контролируемые различными преступными группировками. Барбара Кин начнёт собирать женскую армию, Айви разместится в центральном парке, а Пингвин превратится в настоящего оружейного барона и сделает своей резиденцией городскую ратушу.-[box=#d2d2d2,#000000]Ссылка на предыдущие и альтернативные раздачи "Gotham"[/box]- -Качество: WEB-DL 1080p
Формат: MKV
Видео: AVC, 1920x1080 (16:9), 23.976 fps, ~ 5800 kbps
Аудио №1: AC3, 48,0 kHz, 6 ch, 384 kbps | NewStudio
Аудио №2: AC3, 48,0 kHz, 6 ch, 640 kbps | Original
Субтитры: Английские (Full, SDH)
Реклама: Отсутствует
Исходник: Gotham.S05.1080p.NF.WEB-DL.DDP5.1.x264-CasStudio-

Список серий

01. Year Zero / Нулевой год
02. Trespassers / Незваные гости
03. Penguin, Our Hero / Пингвин, наш герой
04. Ruin / Пепелище
05. Pena Dura / Пенья Дуро
06. 13 Stitches / 13 швов
07. Ace Chemicals / Эйс Кемикалс
08. Nothing's Shocking / Ничего необычного
09. The Trial of Jim Gordon / Суд над Джимом Гордоном
10. I Am Bane / Я - Бэйн

Релиз

MediaInfo

Complete name : D:\Gotham_(s05)_NewStudio_1080p\Gotham.S05E01.Year.Zero.1080p.NF.WEB-DL.DD5.1.x264-CasStudio.mkv
Format : Matroska
Format version : Version 2
File size : 2.02 GiB
Duration : 42 min 49 s
Overall bit rate mode : Variable
Overall bit rate : 6 766 kb/s
Encoded date : UTC 2019-01-17 17:35:06
Writing application : mkvmerge v4.9.1 ('Ich will') сборка от Jul 11 2011 23:53:15
Writing library : libebml v1.2.1 + libmatroska v1.1.1
Video
ID : 1
Format : AVC
Format/Info : Advanced Video Codec
Format profile : [email protected]
Format settings : CABAC / 3 Ref Frames
Format settings, CABAC : Yes
Format settings, ReFrames : 3 frames
Codec ID : V_MPEG4/ISO/AVC
Duration : 42 min 49 s
Bit rate mode : Variable
Bit rate : 5 800 kb/s
Maximum bit rate : 8 700 kb/s
Width : 1 920 pixels
Height : 1 080 pixels
Display aspect ratio : 16:9
Frame rate mode : Constant
Frame rate : 23.976 (24000/1001) FPS
Color space : YUV
Chroma subsampling : 4:2:0
Bit depth : 8 bits
Scan type : Progressive
Bits/(Pixel*Frame) : 0.117
Stream size : 1.68 GiB (83%)
Title : Release by EniaHD
Writing library : x264 core 148 r2715 7e75228
Encoding settings : cabac=1 / ref=3 / deblock=1:0:0 / analyse=0x1:0x111 / me=umh / subme=10 / psy=1 / psy_rd=1.00:0.00 / mixed_ref=1 / me_range=24 / chroma_me=1 / trellis=2 / 8x8dct=0 / cqm=0 / deadzone=21,11 / fast_pskip=1 / chroma_qp_offset=-2 / threads=8 / lookahead_threads=1 / sliced_threads=0 / nr=0 / decimate=1 / interlaced=0 / bluray_compat=0 / stitchable=1 / constrained_intra=0 / bframes=2 / b_pyramid=0 / b_adapt=2 / b_bias=0 / direct=3 / weightb=1 / open_gop=0 / weightp=2 / keyint=48 / keyint_min=25 / scenecut=0 / intra_refresh=0 / rc_lookahead=48 / rc=2pass / mbtree=1 / bitrate=5800 / ratetol=1.0 / qcomp=0.50 / qpmin=6 / qpmax=51 / qpstep=4 / cplxblur=20.0 / qblur=0.5 / vbv_maxrate=8700 / vbv_bufsize=11600 / nal_hrd=vbr / filler=0 / ip_ratio=1.40 / aq=1:1.00
Language : English
Default : Yes
Forced : No
Audio #1
ID : 2
Format : AC-3
Format/Info : Audio Coding 3
Codec ID : A_AC3
Duration : 42 min 49 s
Bit rate mode : Constant
Bit rate : 384 kb/s
Channel(s) : 6 channels
Channel positions : Front: L C R, Side: L R, LFE
Sampling rate : 48.0 kHz
Frame rate : 31.250 FPS (1536 SPF)
Bit depth : 16 bits
Compression mode : Lossy
Stream size : 118 MiB (6%)
Title : NewStudio
Language : Russian
Service kind : Complete Main
Default : Yes
Forced : No
Audio #2
ID : 3
Format : AC-3
Format/Info : Audio Coding 3
Codec ID : A_AC3
Duration : 42 min 49 s
Bit rate mode : Constant
Bit rate : 640 kb/s
Channel(s) : 6 channels
Channel positions : Front: L C R, Side: L R, LFE
Sampling rate : 48.0 kHz
Frame rate : 31.250 FPS (1536 SPF)
Bit depth : 16 bits
Compression mode : Lossy
Stream size : 196 MiB (9%)
Language : English
Service kind : Complete Main
Default : No
Forced : No
Text #1
ID : 4
Format : UTF-8
Codec ID : S_TEXT/UTF8
Codec ID/Info : UTF-8 Plain Text
Title : Full
Language : English
Default : No
Forced : No
Text #2
ID : 5
Format : UTF-8
Codec ID : S_TEXT/UTF8
Codec ID/Info : UTF-8 Plain Text
Title : SDH
Language : English
Default : No
Forced : No

Скриншоты

[erzsebet.org].t3075763.torrent
Торрент: Зарегистрирован [ 2020-10-18 05:11 ]

Скачать .torrent

Скачать

196 KB

Статус: проверено
Скачан: 0 раз
Размер: 19.49 GB
Поблагодарили: 0  Спасибо
terms.php
Связанные раздачи
Добавлен Темы Размер S / L Ссылка
21-Сен-19 05:19 Готэм / Gotham / Сезон: 5 / Серии: 1-10 из 12 (Дэнни Кэннон, Т.Дж. Скотт, Эгил Эгилссон, Роб Бэйли) [2019, США, Триллер, драма, криминал, WEB-DL 720p] MVO (Jaskier) + OriginalОтв. 0 10.82 GB | Скачать .torrent
[Профиль]  [ЛС] 
Показать сообщения:    
Ответить на тему

Текущее время: 25-Ноя 21:49

Часовой пояс: UTC + 3



Вы не можете начинать темы
Вы не можете отвечать на сообщения
Вы не можете редактировать свои сообщения
Вы не можете удалять свои сообщения
Вы не можете голосовать в опросах
Вы не можете прикреплять файлы к сообщениям
Вы можете скачивать файлы