(Авторская песня) Лоза Юрий - Для ума - 1995, FLAC (image + .cue), lossless

Ответить на тему
Статистика раздачи
Размер:  304 MB   |    Зарегистрирован:  1 месяц 4 дня   |    Скачан:  0 раз
Сидов:  2   Личеров:  1  
 
 
Автор Сообщение

erzsebet ®

Стаж: 18 лет

Сообщений: 1015745

Откуда: Венгрия

Создавать темы 24-Окт-2020 12:31  |  Сменить автора

[Цитировать] 

Лоза Юрий - Для ума
Страна: Россия
Жанр: Авторская песня
Год выпуска: 1995
Формат: FLAC (image + .cue)
Битрейт аудио: lossless
Продолжительность: 0:50:36.08
Трэклист:
1. Зима
2. Пиво
3. Я умею мечтать
4. Есть повод для печали
5. Мой трамвай последний
6. Смерть
7. Тоска
8. Стерва
9. Резиновые дни
10. Зачем
11. Одиночество
12. Память
Exact Audio Copy V0.99 prebeta 4 from 23. January 2008
Отчёт EAC об извлечении, выполненном 11. апреля 2008, 14:14
Лоза Юрий / Для ума
Дисковод: _NEC NR-7900A Adapter: 1 ID: 0
Режим чтения : Достоверность
Использование точного потока : Да
Отключение кэша аудио : Да
Использование указателей C2 : Нет
Коррекция смещения при чтении : 685
Способность читать области Lead-in и Lead-out : Нет
Заполнение пропущенных сэмплов тишиной : Да
Удаление блоков с тишиной в начале и конце : Нет
При вычислениях CRC использовались нулевые сэмплы : Да
Интерфейс : Установленный внешний ASPI-интерфейс
Выходной формат : Внутренние WAV-операции
Формат сэмплов : 44.100 Гц; 16 бит; стерео
TOC извлечённого CD
Трек | Старт | Длительность | Начальный сектор | Конечный сектор
---------------------------------------------------------------------
1 | 0:00.10 | 4:06.68 | 10 | 18527
2 | 4:07.03 | 3:51.42 | 18528 | 35894
3 | 7:58.45 | 4:26.21 | 35895 | 55865
4 | 12:24.66 | 4:07.41 | 55866 | 74431
5 | 16:32.32 | 4:36.03 | 74432 | 95134
6 | 21:08.35 | 4:12.74 | 95135 | 114108
7 | 25:21.34 | 5:10.60 | 114109 | 137418
8 | 30:32.19 | 3:48.34 | 137419 | 154552
9 | 34:20.53 | 4:01.09 | 154553 | 172636
10 | 38:21.62 | 3:42.27 | 172637 | 189313
11 | 42:04.14 | 3:56.16 | 189314 | 207029
12 | 46:00.30 | 4:35.63 | 207030 | 227717
Характеристики диапазона извлечения и сообщения об ошибках
Выбранный диапазон
Имя файла E:\FLAC\Loza\Лоза Юрий - Для ума.wav
Пиковый уровень 90.6 %
Качество диапазона 99.8 %
CRC копии 79CE1107
Копирование... OK
Ошибок не произошло
Конец отчёта
[erzsebet.org].t3139298.torrent
Торрент: Зарегистрирован [ 2020-10-24 12:42 ]

Скачать .torrent

Скачать

25 KB

Статус: проверено
Скачан: 0 раз
Размер: 304 MB
Поблагодарили: 0  Спасибо
terms.php
[Профиль]  [ЛС] 
Показать сообщения:    
Ответить на тему

Текущее время: 29-Ноя 04:19

Часовой пояс: UTC + 3



Вы не можете начинать темы
Вы не можете отвечать на сообщения
Вы не можете редактировать свои сообщения
Вы не можете удалять свои сообщения
Вы не можете голосовать в опросах
Вы не можете прикреплять файлы к сообщениям
Вы можете скачивать файлы