Andrew Blake's All My Best: Aria / Aria Giovanni - Моё лучшее ... (Andrew Blake / Studio A Entertainment) [2010 г., All Girl / Lesbian, Erotic, Vignettes, Couples, DVDRip] Aria Giovanni, Anita Blond, Sierra, Justine Joli, Adriana Sage, Kyla Cole, Erica Campbell

Ответить на тему
Статистика раздачи
Размер:  1.27 GB   |    Зарегистрирован:  3 месяца 6 дней   |    Скачан:  26 раз
Сидов:  1   Личеров:  1  
 
 
 
Автор Сообщение

erzsebet ®

Стаж: 17 лет

Сообщений: 244497

Создавать темы 14-Май-2019 21:03  |  Сменить автора

[Цитировать] 

Andrew Blake's All My Best: Aria

Год релиза: 2010 г.
Страна: USA
Жанр:
All Girl / Lesbian, Erotic, Vignettes, Couples
Продолжительность: 01:55:05
Язык: English
Режиссер: Andrew Blake
Студия: Studio A Entertainment / Andrew Blake
В ролях:
Aria Giovanni, Anita Blond, Sierra, Justine Joli, Adriana Sage, Kyla Cole, Erica Campbell
Описание:
Andrew Blake showcases the captivating beauty of Aria Giovanni. Never has Aria looked more enticing as she interacts seductively throughout this collection All my Best - Aria features twenty erotic fetish fantasies portraying such themes as hot waxing, spanking, cat fighting and sensual stages of undress. With each scenario, Aria exudes her unmatched aura of sexuality and erotic splendor. Andrew Blake’s inspired photography of Aria Giovanni will not disappoint those who enjoy the rare talents of both the award winning director and his equally appealing star.
Качество: DVDRip
Формат: MP4
Видео: MPEG4 Video (H264) 720x406 29.97fps 1250kbps
Аудио: AAC 48000Hz stereo 319kbps

Тех данные

Общее
Полное имя : U:\Andrew Blake's All My Best - Aria Giovanni [erzsebet.org] DVDRip.mp4
Формат : MPEG-4
Профиль формата : Base Media / Version 2
Идентификатор кодека : mp42 (isom/iso2/avc1/mp41)
Размер файла : 1,27 Гбайт
Продолжительность : 1 ч. 55 м.
Режим общего битрейта : Переменный
Общий поток : 1577 Кбит/сек
Название фильма : Andrew Blake's All My Best: Aria [erzsebet.org]
Дата кодирования : UTC 2019-06-12 03:43:21
Дата пометки : UTC 2019-06-12 03:43:21
Программа кодирования : HandBrake 0.10.5 2016021100
Видео
Идентификатор : 1
Формат : AVC
Формат/Информация : Advanced Video Codec
Профиль формата : High@L4.1
Настройки формата : CABAC / 8 Ref Frames
Параметр CABAC формата : Да
Параметр RefFrames формата : 8 кадров
Идентификатор кодека : avc1
Идентификатор кодека/Информация : Advanced Video Coding
Продолжительность : 1 ч. 55 м.
Битрейт : 1250 Кбит/сек
Ширина : 720 пикселей
Высота : 406 пикселей
Соотношение сторон : 16:9
Режим частоты кадров : Переменный
Частота кадров : 29,970 кадров/сек
Минимальная частота кадров : 15,152 кадров/сек
Максимальная частота кадров : 30,303 кадров/сек
Цветовое пространство : YUV
Субдискретизация насыщенности : 4:2:0
Битовая глубина : 8 бит
Тип развёртки : Прогрессивная
Бит/(Пиксели*Кадры) : 0.143
Размер потока : 1,00 Гбайт (79%)
Библиотека кодирования : x264 core 142 r2479 dd79a61
Настройки программы : cabac=1 / ref=8 / deblock=1:-1:-1 / analyse=0x3:0x133 / me=umh / subme=9 / psy=1 / psy_rd=1.00:0.15 / mixed_ref=1 / me_range=16 / chroma_me=1 / trellis=2 / 8x8dct=1 / cqm=0 / deadzone=21,11 / fast_pskip=1 / chroma_qp_offset=-3 / threads=3 / lookahead_threads=1 / sliced_threads=0 / nr=0 / decimate=1 / interlaced=0 / bluray_compat=0 / constrained_intra=0 / bframes=3 / b_pyramid=2 / b_adapt=2 / b_bias=0 / direct=3 / weightb=1 / open_gop=0 / weightp=2 / keyint=300 / keyint_min=30 / scenecut=40 / intra_refresh=0 / rc_lookahead=60 / rc=2pass / mbtree=1 / bitrate=1250 / ratetol=1.0 / qcomp=0.60 / qpmin=0 / qpmax=69 / qpstep=4 / cplxblur=20.0 / qblur=0.5 / vbv_maxrate=62500 / vbv_bufsize=78125 / nal_hrd=none / filler=0 / ip_ratio=1.40 / aq=1:1.00
Дата кодирования : UTC 2019-06-12 03:43:21
Дата пометки : UTC 2019-06-12 03:43:21
Цветовой диапазон : Limited
Основные цвета : BT.601 NTSC
Характеристики трансфера : BT.709
Коэффициенты матрицы : BT.601
Menus : 3
Codec configuration box : avcC
Аудио
Идентификатор : 2
Формат : AAC LC
Формат/Информация : Advanced Audio Codec Low Complexity
Идентификатор кодека : mp4a-40-2
Продолжительность : 1 ч. 55 м.
Вид битрейта : Переменный
Битрейт : 319 Кбит/сек
Каналы : 2 канала
ChannelLayout : L R
Частота : 48,0 КГц
Частота кадров : 46,875 кадров/сек (1024 SPF)
Метод сжатия : С потерями
Размер потока : 262 Мбайт (20%)
Заголовок : Stereo / Stereo
Язык : English
Default : Да
AlternateGroup/String : 1
Дата кодирования : UTC 2019-06-12 03:43:21
Дата пометки : UTC 2019-06-12 03:43:21
Menus : 3
Меню
Идентификатор : 3
Идентификатор кодека : text
Продолжительность : 1 ч. 55 м.
Язык : English
Дата кодирования : UTC 2019-06-12 03:43:21
Дата пометки : UTC 2019-06-12 03:43:21
Menu For : 1,2
00:00:00.000 : Chapter 1
00:02:34.020 : Chapter 2
00:09:48.821 : Chapter 3
00:13:46.158 : Chapter 4
00:16:48.374 : Chapter 5
00:20:05.170 : Chapter 6
00:28:01.112 : Chapter 7
00:30:45.610 : Chapter 8
00:36:38.362 : Chapter 9
00:38:41.585 : Chapter 10
00:43:21.365 : Chapter 11
00:46:07.531 : Chapter 12
00:56:11.735 : Chapter 13
01:03:08.017 : Chapter 14
01:10:53.649 : Chapter 15
01:12:54.403 : Chapter 16
01:16:47.903 : Chapter 17
01:23:46.321 : Chapter 18
01:32:53.568 : Chapter 19
01:35:40.301 : Chapter 20
01:49:26.326 : Chapter 21

Скринлист

[erzsebet.org].t2500085.torrent
Торрент: Зарегистрирован [ 2019-06-12 12:03 ]

Скачать .torrent

Скачать

2 KB

Статус: проверено
Скачан: 26 раз
Размер: 1.27 GB
Поблагодарили: 1  Спасибо   (список)
terms.php
Связанные раздачи
Добавлен Темы Размер S / L Ссылка
08-Июн-19 05:56 Andrew Blake's All My Best: Aria / Aria Giovanni - Моё лучшее ... (Andrew Blake / Studio A Entertainment) [2010 г., All Girl / Lesbian, Erotic, Vignettes, Couples, DVDRemux] Aria Giovanni, Anita Blond, Sierra, Justine Joli, Adriana Sage, Kyla Cole, Erica CampbellОтв. 0 3.53 GB | Скачать .torrent
12-Ноя-18 22:14 Andrew Blake's All My Best: Aria / Aria Giovanni - Моё лучшее ... (Andrew Blake / Studio A Entertainment) [2010 г., All Girl / Lesbian, Erotic, Vignettes, Couples, DVD5] Aria Giovanni, Anita Blond, Sierra, Justine Joli Adriana Sage, Kyla Cole, Erica CampbellОтв. 0 3.79 GB | Скачать .torrent
[Профиль]  [ЛС] 
Показать сообщения:    
Ответить на тему

Текущее время: 18-Сен 15:18

Часовой пояс: UTC + 3



Вы не можете начинать темы
Вы не можете отвечать на сообщения
Вы не можете редактировать свои сообщения
Вы не можете удалять свои сообщения
Вы не можете голосовать в опросах
Вы не можете прикреплять файлы к сообщениям
Вы можете скачивать файлы