(Alternative) [CD] Пилот - Пандора - 2018, FLAC (image+.cue), lossless

Ответить на тему
Статистика раздачи
Размер:  886 MB   |    Зарегистрирован:  2 месяца 1 день   |    Скачан:  0 раз

Полного источника не было: 2 месяца 1 день

 
 
 
Автор Сообщение

erzsebet ®

Стаж: 17 лет

Сообщений: 41871

Откуда: erzsebet.org

Создавать темы 16-Май-2019 01:36  |  Сменить автора

[Цитировать] 

Пилот / Пандора
Жанр: Alternative
Носитель: CD
Страна-производитель диска (релиза): RU
Год издания: 2018
Издатель (лейбл): Kapkan Records
Номер по каталогу: none
Страна исполнителя (группы): Россия
Аудиокодек: FLAC (*.flac)
Тип рипа: image+.cue
Битрейт аудио: lossless
Продолжительность: 01:17:20
Наличие сканов в содержимом раздачи: да
Треклист:
1 Гаятри (Пайлот Бабаджи)
2 Пандора
3 Нелюбовь
4 4 на 4
5 Нет Иного Рая
6 Нетолерантность
7 Заплати Мной
8 Не Жилец
9 Дожди
10 Йога
11 Выживший
12 Добро Пожаловать В Ад
13 Гарь
14 Сны
15 Сайга
16 Безмятежность

Лог создания рипа

Exact Audio Copy V1.3 from 2. September 2016
EAC extraction logfile from 17. February 2018, 22:01
Пилот / Пандора
Used drive : SlimtypeDVD A DU8A5SH Adapter: 1 ID: 0
Read mode : Secure
Utilize accurate stream : Yes
Defeat audio cache : Yes
Make use of C2 pointers : No
Read offset correction : 6
Overread into Lead-In and Lead-Out : No
Fill up missing offset samples with silence : Yes
Delete leading and trailing silent blocks : No
Null samples used in CRC calculations : Yes
Used interface : Native Win32 interface for Win NT & 2000
Used output format : User Defined Encoder
Selected bitrate : 1024 kBit/s
Quality : High
Add ID3 tag : No
Command line compressor : C:\Program Files (x86)\Exact Audio Copy\Flac\flac.exe
Additional command line options : -T "COMMENT=by k0ste for erzsebet.org.org" -V -8 -T "Date=%year%" -T "Genre=%genre%" %source%
TOC of the extracted CD
Track | Start | Length | Start sector | End sector
---------------------------------------------------------
1 | 0:00.00 | 2:57.12 | 0 | 13286
2 | 2:57.12 | 4:27.13 | 13287 | 33324
3 | 7:24.25 | 5:43.24 | 33325 | 59073
4 | 13:07.49 | 3:51.68 | 59074 | 76466
5 | 16:59.42 | 5:23.68 | 76467 | 100759
6 | 22:23.35 | 4:24.61 | 100760 | 120620
7 | 26:48.21 | 5:50.50 | 120621 | 146920
8 | 32:38.71 | 5:05.60 | 146921 | 169855
9 | 37:44.56 | 5:02.00 | 169856 | 192505
10 | 42:46.56 | 5:25.53 | 192506 | 216933
11 | 48:12.34 | 4:40.05 | 216934 | 237938
12 | 52:52.39 | 4:23.37 | 237939 | 257700
13 | 57:16.01 | 3:42.47 | 257701 | 274397
14 | 60:58.48 | 5:23.20 | 274398 | 298642
15 | 66:21.68 | 5:19.42 | 298643 | 322609
16 | 71:41.35 | 5:38.42 | 322610 | 348001
Range status and errors
Selected range
Filename Z:\mnt\nas\PIZDA\2018 - Пандора.wav
Peak level 100.0 %
Extraction speed 2.0 X
Range quality 99.9 %
Test CRC 1F21664C
Copy CRC 1F21664C
Copy OK
No errors occurred
AccurateRip summary
Track 1 not present in database
Track 2 not present in database
Track 3 not present in database
Track 4 not present in database
Track 5 not present in database
Track 6 not present in database
Track 7 not present in database
Track 8 not present in database
Track 9 not present in database
Track 10 not present in database
Track 11 not present in database
Track 12 not present in database
Track 13 not present in database
Track 14 not present in database
Track 15 not present in database
Track 16 not present in database
None of the tracks are present in the AccurateRip database
End of status report
==== Log checksum DA7D2FDF92CE59C3F8075E041AF1514071EE1D91A36BFD6C9C22E1EA25A0318B ====

Содержание индексной карты (.CUE)

REM GENRE Alternative
REM DATE 2018
REM DISCID EF122010
REM COMMENT "ExactAudioCopy v1.3"
PERFORMER "Пилот"
TITLE "Пандора"
REM COMPOSER ""
FILE "2018 - Пандора.flac" WAVE
TRACK 01 AUDIO
TITLE "Гаятри (Пайлот Бабаджи)"
PERFORMER "Пилот"
REM COMPOSER ""
INDEX 01 00:00:00
TRACK 02 AUDIO
TITLE "Пандора"
PERFORMER "Пилот"
REM COMPOSER ""
INDEX 01 02:57:12
TRACK 03 AUDIO
TITLE "Нелюбовь"
PERFORMER "Пилот"
REM COMPOSER ""
INDEX 01 07:24:25
TRACK 04 AUDIO
TITLE "4 на 4"
PERFORMER "Пилот"
REM COMPOSER ""
INDEX 01 13:07:49
TRACK 05 AUDIO
TITLE "Нет Иного Рая"
PERFORMER "Пилот"
REM COMPOSER ""
INDEX 01 16:59:42
TRACK 06 AUDIO
TITLE "Нетолерантность"
PERFORMER "Пилот"
REM COMPOSER ""
INDEX 01 22:23:35
TRACK 07 AUDIO
TITLE "Заплати Мной"
PERFORMER "Пилот"
REM COMPOSER ""
INDEX 01 26:48:21
TRACK 08 AUDIO
TITLE "Не Жилец"
PERFORMER "Пилот"
REM COMPOSER ""
INDEX 01 32:38:71
TRACK 09 AUDIO
TITLE "Дожди"
PERFORMER "Пилот"
REM COMPOSER ""
INDEX 01 37:44:56
TRACK 10 AUDIO
TITLE "Йога"
PERFORMER "Пилот"
REM COMPOSER ""
INDEX 01 42:46:56
TRACK 11 AUDIO
TITLE "Выживший"
PERFORMER "Пилот"
REM COMPOSER ""
INDEX 01 48:12:34
TRACK 12 AUDIO
TITLE "Добро Пожаловать В Ад"
PERFORMER "Пилот"
REM COMPOSER ""
INDEX 01 52:52:39
TRACK 13 AUDIO
TITLE "Гарь"
PERFORMER "Пилот"
REM COMPOSER ""
INDEX 01 57:16:01
TRACK 14 AUDIO
TITLE "Сны"
PERFORMER "Пилот"
REM COMPOSER ""
INDEX 01 60:58:48
TRACK 15 AUDIO
TITLE "Сайга"
PERFORMER "Пилот"
REM COMPOSER ""
INDEX 01 66:21:68
TRACK 16 AUDIO
TITLE "Безмятежность"
PERFORMER "Пилот"
REM COMPOSER ""
INDEX 01 71:41:35
[erzsebet.org].t2500143.torrent 
Торрент: Зарегистрирован [ 2019-05-16 01:36 ]

Скачать .torrent

Скачать

36 KB

Статус: проверено
Скачан: 0 раз
Размер: 886 MB
Поблагодарили: 0  Спасибо
terms.php
[Профиль]  [ЛС] 
Показать сообщения:    
Ответить на тему

Текущее время: 17-Июл 18:26

Часовой пояс: UTC + 3



Вы не можете начинать темы
Вы не можете отвечать на сообщения
Вы не можете редактировать свои сообщения
Вы не можете удалять свои сообщения
Вы не можете голосовать в опросах
Вы не можете прикреплять файлы к сообщениям
Вы можете скачивать файлы