Твин Пикс / Twin Peaks / Сезон: 2 / Серии: 1-22 из 22 (Дэвид Линч / David Lynch) [1990-1991, США, триллер, мистика, драма, детектив, BDRip 1080p] MVO (Sci-Fi) + MVO (ОРТ) + AVO (Юрий Сербин) + Original

Ответить на тему
Статистика раздачи
Размер:  74,32 GB   |    Зарегистрирован:  2 месяца 18 дней   |    Скачан:  0 раз

Полного источника не было: Никогда

 
 
 
Автор Сообщение

erzsebet ®

Стаж: 17 лет

Сообщений: 73897

Создавать темы 31-Май-2019 14:35  |  Сменить автора

[Цитировать] 

Твин Пикс / Twin Peaks
Год выпуска: 1990-1991
Страна: США
Жанр: триллер, мистика, драма, детектив
Продолжительность пилотного эпизода: 94 минуты
Продолжительность эпизодов 2-22: 46 минут
Перевод: Профессиональный (многоголосый закадровый) Sci-Fi
Перевод 2: Профессиональный (многоголосый закадровый) ОРТ
Перевод 3: Авторский (одноголосый закадровый) Юрий Сербин
Режиссёр: Дэвид Линч / David Lynch
В ролях: Кайл МакЛоклан, Майкл Онткин, Медхен Эмик, Дэна Эшбрук, Ричард Беймер, Лара Флинн Бойл, Шерилин Фенн, Уоррен Фрост, Пегги Липтон, Джеймс Маршал, Эверет МакГилл, Джек Нэнс, Рэй Уайз, Джоан Чен, Пайпер Лори, Расс Тэмблин, Кимми Робертсон, Шерил Ли, Эрик Да Ре, Гарри Гоас, Майкл Хорс, Грейс Забриски, Мигель Феррер, Дэвид Линч, Майкл Дж. Андерсон, Дэвид Духовны, Билли Зейн, Алисия Уитт, Дэвид Уорнер, Крис Малки, Ленни Фон Долен, Майкл Паркс, Хизер Грэм, Йен Бьюкэнэн, Мэри Джо Дешанель, Фрэнк Силва, Кеннет Уэлш, Дэвид Патрик Келли, Тэд Рейми
Описание: В городке Твин Пикс ранним утром обнаружено завернутое в целлофан обнаженное тело молодой девушки по имени Лора Палмер. Чуть позже утром на границе штата находят еще одну ученицу из школы, где училась Лора, Ронетт Пуласки. Полуобнаженная, она брела по рельсам, плохо понимая, что происходит и где она находится. Для помощи в расследовании убийства в город прибывает специальный агент ФБР Дэйл Купер. Вскоре становится ясно – в этом городе многое совсем не так, как кажется на первый взгляд… За тихой размеренной жизнью провинциального города стоят интриги, ложь, насилие, а леса вокруг Твин Пикса хранят древнее зло… Но все же, кто убил Лору Палмер?
Сэмпл.
Качество: BDRip 1080p
Контейнер: MKV
Видео: H.264, 1440x1080, 23.976 fps, ~8455 kbps, 0.227 bit/pixel
Аудио: Русский (AC3, 2 ch, 192 Кбит/с) / Профессиональный многоголосый (Sci-Fi)
Аудио 2: Русский (AC3, 2 ch, 192 Кбит/с) / Профессиональный многоголосый (ОРТ)
Аудио 3: Русский (AC3, 6 ch, 448 Кбит/с) / Авторский одноголосый (Юрий Сербин)
Аудио 4: English, 48 kHz, Dolby Digital 5.1 @ 448 kbps
Субтитры: softsub (SRT) RUS (Киномания) & Eng SRT UTF-8

Список серий

01: May the Giant Be with You
02: Coma
03: The Man behind Glass
04: Laura's Secret Diary
05: The Orchid's Curse
06: Demons
07: Lonely Souls
08: Drive with a Dead Girl
09: Arbitrary Law
10: Dispute between Brothers
11: Masked Ball
12: The Black Widow
13: Checkmate
14: Double Play
15: Slaves and Masters
16: The Condemned Woman
17: Wounds and Scars
18: On the Wings of Love
19: Variations on Relations
20: The Path to the Black Lodge
21: Miss Twin Peaks
22: Beyond Life and Death

MediaInfo

General
Unique ID : 196945931161018380688001396326666816556 (0x942A6818907D9AE59CDD0C8FEF374C2C)
Complete name : I:\1 VIDEO\Twin Peaks\Season 02\Twin.Peaks.S02E01.May.the.Giant.Be.with.You.1080p.BDRip.Rus.Eng.mkv
Format : Matroska
Format version : Version 4 / Version 2
File size : 6.41 GiB
Duration : 1h 34mn
Overall bit rate : 9 737 Kbps
Encoded date : UTC 2014-11-26 10:28:57
Writing application : mkvmerge v7.2.0 ('On Every Street') 32bit built on Sep 13 2014 15:42:11
Writing library : libebml v1.3.0 + libmatroska v1.4.1
DURATION : 01:29:20.856000000
NUMBER_OF_FRAMES : 1057
NUMBER_OF_BYTES : 34891
_STATISTICS_WRITING_APP : mkvmerge v7.2.0 ('On Every Street') 32bit built on Sep 13 2014 15:42:11
_STATISTICS_WRITING_DATE_UTC : 2014-11-26 10:28:57
_STATISTICS_TAGS : BPS DURATION NUMBER_OF_FRAMES NUMBER_OF_BYTES
Video
ID : 1
Format : AVC
Format/Info : Advanced Video Codec
Format profile : High@L4.1
Format settings, CABAC : Yes
Format settings, ReFrames : 5 frames
Codec ID : V_MPEG4/ISO/AVC
Duration : 1h 34mn
Bit rate : 8 455 Kbps
Width : 1 440 pixels
Height : 1 080 pixels
Display aspect ratio : 4:3
Frame rate mode : Constant
Frame rate : 23.976 fps
Color space : YUV
Chroma subsampling : 4:2:0
Bit depth : 8 bits
Scan type : Progressive
Bits/(Pixel*Frame) : 0.227
Stream size : 5.44 GiB (85%)
Writing library : x264 core 142 r2431 ac76440
Encoding settings : cabac=1 / ref=5 / deblock=1:-2:-2 / analyse=0x3:0x113 / me=umh / subme=8 / psy=1 / psy_rd=1.00:0.00 / mixed_ref=1 / me_range=16 / chroma_me=1 / trellis=1 / 8x8dct=1 / cqm=0 / deadzone=21,11 / fast_pskip=1 / chroma_qp_offset=-2 / threads=12 / lookahead_threads=2 / sliced_threads=0 / nr=0 / decimate=1 / interlaced=0 / bluray_compat=0 / constrained_intra=0 / bframes=3 / b_pyramid=2 / b_adapt=2 / b_bias=0 / direct=3 / weightb=1 / open_gop=0 / weightp=2 / keyint=240 / keyint_min=24 / scenecut=40 / intra_refresh=0 / rc_lookahead=50 / rc=2pass / mbtree=1 / bitrate=8455 / ratetol=1.0 / qcomp=0.60 / qpmin=0 / qpmax=69 / qpstep=4 / cplxblur=20.0 / qblur=0.5 / ip_ratio=1.40 / aq=1:1.00
Language : English
Default : Yes
Forced : No
DURATION : 01:34:12.564000000
NUMBER_OF_FRAMES : 135526
NUMBER_OF_BYTES : 5973790732
_STATISTICS_WRITING_APP : mkvmerge v7.2.0 ('On Every Street') 32bit built on Sep 13 2014 15:42:11
_STATISTICS_WRITING_DATE_UTC : 2014-11-26 10:28:57
_STATISTICS_TAGS : BPS DURATION NUMBER_OF_FRAMES NUMBER_OF_BYTES
Audio #1
ID : 2
Format : AC-3
Format/Info : Audio Coding 3
Mode extension : CM (complete main)
Format settings, Endianness : Big
Codec ID : A_AC3
Duration : 1h 34mn
Bit rate mode : Constant
Bit rate : 192 Kbps
Channel(s) : 2 channels
Channel positions : Front: L R
Sampling rate : 48.0 KHz
Bit depth : 16 bits
Compression mode : Lossy
Stream size : 129 MiB (2%)
Title : Sci-Fi
Language : Russian
Default : Yes
Forced : No
Audio #2
ID : 3
Format : AC-3
Format/Info : Audio Coding 3
Mode extension : CM (complete main)
Format settings, Endianness : Big
Codec ID : A_AC3
Duration : 1h 34mn
Bit rate mode : Constant
Bit rate : 192 Kbps
Channel(s) : 2 channels
Channel positions : Front: L R
Sampling rate : 48.0 KHz
Bit depth : 16 bits
Compression mode : Lossy
Stream size : 129 MiB (2%)
Title : ОРТ
Language : Russian
Default : No
Forced : No
Audio #3
ID : 4
Format : AC-3
Format/Info : Audio Coding 3
Mode extension : CM (complete main)
Format settings, Endianness : Big
Codec ID : A_AC3
Duration : 1h 34mn
Bit rate mode : Constant
Bit rate : 448 Kbps
Channel(s) : 6 channels
Channel positions : Front: L C R, Side: L R, LFE
Sampling rate : 48.0 KHz
Bit depth : 16 bits
Compression mode : Lossy
Stream size : 302 MiB (5%)
Title : Юрий Сербин
Language : Russian
Default : No
Forced : No
Audio #4
ID : 5
Format : AC-3
Format/Info : Audio Coding 3
Mode extension : CM (complete main)
Format settings, Endianness : Big
Codec ID : A_AC3
Duration : 1h 34mn
Bit rate mode : Constant
Bit rate : 448 Kbps
Channel(s) : 6 channels
Channel positions : Front: L C R, Side: L R, LFE
Sampling rate : 48.0 KHz
Bit depth : 16 bits
Compression mode : Lossy
Stream size : 302 MiB (5%)
Language : English
Default : No
Forced : No
Text #1
ID : 6
Format : UTF-8
Codec ID : S_TEXT/UTF8
Codec ID/Info : UTF-8 Plain Text
Language : Russian
Default : No
Forced : No
Text #2
ID : 7
Format : UTF-8
Codec ID : S_TEXT/UTF8
Codec ID/Info : UTF-8 Plain Text
Language : English
Default : No
Forced : No

Скриншоты

Если ваш рейтинг упадет ниже 0,3, вы не сможете скачивать торренты! Подробнее о рейтинге.

[erzsebet.org].t2500828.torrent 
Торрент: Зарегистрирован [ 2019-05-31 14:35 ]

Скачать .torrent

Скачать

188 KB

Статус: проверено
Скачан: 0 раз
Размер: 74,32 GB
Поблагодарили: 0  Спасибо
terms.php
Связанные раздачи
Добавлен Темы Размер S / L Ссылка
27-Ноя-18 07:10 Твин Пикс / Twin Peaks / Сезон: 2 / Серии: 1-22 из 22 (Дэвид Линч / David Lynch) [1990-1991, США, Триллер, драма, криминал, детектив, BDRip 720p] MVO (ТВ-3) + MVO (NovaMedia) + OriginalОтв. 0 68,98 GB | Скачать .torrent
[Профиль]  [ЛС] 
Показать сообщения:    
Ответить на тему

Текущее время: 19-Авг 11:59

Часовой пояс: UTC + 3



Вы не можете начинать темы
Вы не можете отвечать на сообщения
Вы не можете редактировать свои сообщения
Вы не можете удалять свои сообщения
Вы не можете голосовать в опросах
Вы не можете прикреплять файлы к сообщениям
Вы можете скачивать файлы