Andrew Blake's All My Best: Aria / Aria Giovanni - Моё лучшее ... (Andrew Blake / Studio A Entertainment) [2010 г., All Girl / Lesbian, Erotic, Vignettes, Couples, DVDRemux] Aria Giovanni, Anita Blond, Sierra, Justine Joli, Adriana Sage, Kyla Cole, Erica Campbell

Ответить на тему
Статистика раздачи
Размер:  3,53 GB   |    Зарегистрирован:  17 дней   |    Скачан:  0 раз

Сидов:

Пользователь ULR Отдано Скачано Отдача Загрузка
erzsebet ® 0 0- 0- 0- 0-
показаны данные только за текущую сессию
 
 
 
Автор Сообщение

erzsebet ®

Стаж: 14 лет

Сообщений: 40220

Откуда: Hungary

Создавать темы 08-Июн-2019 05:56  |  Сменить автора

[Цитировать] 

Andrew Blake's All My Best: Aria

Год релиза: 2010 г.
Страна: USA
Жанр:
All Girl / Lesbian, Erotic, Vignettes, Couples
Продолжительность: 01:55:42
Язык: English
Режиссер: Andrew Blake
Студия: Studio A Entertainment / Andrew Blake
В ролях:
Aria Giovanni, Anita Blond, Sierra, Justine Joli, Adriana Sage, Kyla Cole, Erica Campbell
Описание:
Andrew Blake showcases the captivating beauty of Aria Giovanni. Never has Aria looked more enticing as she interacts seductively throughout this collection All my Best - Aria features twenty erotic fetish fantasies portraying such themes as hot waxing, spanking, cat fighting and sensual stages of undress. With each scenario, Aria exudes her unmatched aura of sexuality and erotic splendor. Andrew Blake’s inspired photography of Aria Giovanni will not disappoint those who enjoy the rare talents of both the award winning director and his equally appealing star.
Качество: DVDRemux
Формат: MKV
Видео: MPEG2 Video 720x480 (4:3) 29.97fps 3944 kbps
Аудио: Dolby AC3 48000Hz 6ch 448kbps

Тех данные

General
Unique ID : 6727972509601964783552972110408395270 (0x50FC2A7BF647BEDF45265F4F1F32A06)
Complete name : D:\Downloads\Andrew Blake's All My Best - Aria Giovanni [erzsebet.org] DVDRemux.mkv
Format : Matroska
Format version : Version 4
File size : 3.53 GiB
Duration : 1 h 55 min
Overall bit rate mode : Variable
Overall bit rate : 4 394 kb/s
Movie name : Andrew Blake's All My Best: Aria [erzsebet.org]
Encoded date : UTC 2019-06-08 02:50:10
Writing application : mkvmerge v34.0.0 ('Sight and Seen') 64-bit
Writing library : libebml v1.3.7 + libmatroska v1.5.0
Video
ID : 1
Format : MPEG Video
Format version : Version 2
Format profile : Main@Main
Format settings : CustomMatrix / BVOP
Format settings, BVOP : Yes
Format settings, Matrix : Custom
Format settings, GOP : M=3, N=15
Codec ID : V_MPEG2
Codec ID/Info : MPEG 1 or 2 Video
Duration : 1 h 55 min
Bit rate mode : Variable
Bit rate : 3 944 kb/s
Maximum bit rate : 8 000 kb/s
Width : 720 pixels
Height : 480 pixels
Display aspect ratio : 4:3
Frame rate mode : Constant
Frame rate : 29.970 (30000/1001) FPS
Standard : NTSC
Color space : YUV
Chroma subsampling : 4:2:0
Bit depth : 8 bits
Scan type : Progressive
Scan order : Bottom Field First
Compression mode : Lossy
Bits/(Pixel*Frame) : 0.381
Time code of first frame : 00:00:36;13
Time code source : Group of pictures header
Stream size : 3.17 GiB (90%)
Language : English
Default : No
Forced : No
Color primaries : BT.601 NTSC
Transfer characteristics : BT.601
Matrix coefficients : BT.601
Audio
ID : 2
Format : AC-3
Format/Info : Audio Coding 3
Commercial name : Dolby Digital
Codec ID : A_AC3
Duration : 1 h 55 min
Bit rate mode : Constant
Bit rate : 448 kb/s
Channel(s) : 6 channels
Channel layout : L R C LFE Ls Rs
Sampling rate : 48.0 kHz
Frame rate : 31.250 FPS (1536 SPF)
Bit depth : 16 bits
Compression mode : Lossy
Stream size : 369 MiB (10%)
Title : Surround 5.1
Language : English
Service kind : Complete Main
Default : Yes
Forced : No
Menu
00:00:00.000 : en:Chapter 01
00:02:33.820 : en:Chapter 02
00:09:48.621 : en:Chapter 03
00:13:45.925 : en:Chapter 04
00:16:48.240 : en:Chapter 05
00:20:04.937 : en:Chapter 06
00:28:00.879 : en:Chapter 07
00:30:45.476 : en:Chapter 08
00:36:38.129 : en:Chapter 09
00:38:41.352 : en:Chapter 10
00:43:21.231 : en:Chapter 11
00:46:07.397 : en:Chapter 12
00:56:11.501 : en:Chapter 13
01:03:07.817 : en:Chapter 14
01:10:53.515 : en:Chapter 15
01:12:54.203 : en:Chapter 16
01:16:47.703 : en:Chapter 17
01:23:46.187 : en:Chapter 18
01:32:53.434 : en:Chapter 19
01:35:40.167 : en:Chapter 20
01:49:26.192 : en:Chapter 21

Скринлист

[erzsebet.org].t2501181.torrent 
Торрент: Зарегистрирован [ 2019-06-08 05:56 ]

Скачать .torrent

Скачать

5 KB

Статус: проверено
Скачан: 0 раз
Размер: 3,53 GB
Поблагодарили: 0  Спасибо
terms.php
Связанные раздачи
Добавлен Темы Размер S / L Ссылка
14-Май-19 21:03 Andrew Blake's All My Best: Aria / Aria Giovanni - Моё лучшее ... (Andrew Blake / Studio A Entertainment) [2010 г., All Girl / Lesbian, Erotic, Vignettes, Couples, DVDRip] Aria Giovanni, Anita Blond, Sierra, Justine Joli, Adriana Sage, Kyla Cole, Erica CampbellОтв. 0 1,27 GB 25 | 0 Скачать .torrent
12-Ноя-18 22:14 Andrew Blake's All My Best: Aria / Aria Giovanni - Моё лучшее ... (Andrew Blake / Studio A Entertainment) [2010 г., All Girl / Lesbian, Erotic, Vignettes, Couples, DVD5] Aria Giovanni, Anita Blond, Sierra, Justine Joli Adriana Sage, Kyla Cole, Erica CampbellОтв. 0 3,79 GB | Скачать .torrent
[Профиль]  [ЛС] 
Показать сообщения:    
Ответить на тему

Текущее время: 25-Июн 17:48

Часовой пояс: UTC + 3



Вы не можете начинать темы
Вы не можете отвечать на сообщения
Вы не можете редактировать свои сообщения
Вы не можете удалять свои сообщения
Вы не можете голосовать в опросах
Вы не можете прикреплять файлы к сообщениям
Вы можете скачивать файлы