Belladonna: Fetish Fanatic 4 (Belladonna / Evil Angel) [2006 г., Lesbian, Staight, Trans, Anal, Toys, DAP, Deepthroat, Hardcore, +BTS, DVDRip] Brianna Love, Claire Adams, Danielle Foxxx, Katsuni, Sandra Romain, Sasha Grey, Vicki Richter

Ответить на тему
Статистика раздачи
Размер:  4,38 GB   |    Зарегистрирован:  8 дней   |    Скачан:  57 раз

Сидов:

Пользователь ULR Отдано Скачано Отдача Загрузка
erzsebet ® 1 45194442314,21 GB 0- 0- 0-
показаны данные только за текущую сессию
 
 
 
Автор Сообщение

erzsebet ®

Стаж: 14 лет

Сообщений: 39834

Откуда: Hungary

Создавать темы 09-Июн-2019 22:35  |  Сменить автора

[Цитировать] 

Belladonna: Fetish Fanatic 4 Год релиза: 2006 г.
Страна: USA
Жанр: Lesbian, Staight, Anal, Toys, DAP, Deepthroat, Hardcore, +BTS
Продолжительность: 08:13:35
Язык: English
Режиссер: Belladonna
Студия: Belladonna Entertainment / Evil Angel
В ролях:
Belladonna, Brianna Love, Claire Adams, Danielle Foxxx, Katsuni, Sandra Romain, Sasha Grey, Vicki Richter
Описание:
Belladonna brings out the rough side of her girls (and two horny she-males) in this special super-extended triple disc, with Bella's audio commentary throughout the movie, plus 3 hours (! ) of backstage material.
Качество: DVDRip
Формат: MKV
Видео: MPEG4 Video (H264) 640x464 23.976fps 1142 Kbps
Аудио: Dolby AC3 48000Hz stereo 128kbps

Тех данные

General
Unique ID : 48372907550520274434920982668625145684 (0x2464487A3732568EB30A8737CE796F54)
Complete name : D:\Downloads\Belladonna Fetish Fanatic 4 [erzsebet.org] DVDRip.mkv
Format : Matroska
Format version : Version 4
File size : 4.38 GiB
Duration : 8 h 13 min
Overall bit rate : 1 272 kb/s
Movie name : Belladonna: Fetish Fanatic 4 [erzsebet.org]
Encoded date : UTC 2019-06-12 19:43:29
Writing application : mkvmerge v34.0.0 ('Sight and Seen') 64-bit
Writing library : libebml v1.3.7 + libmatroska v1.5.0
Video
ID : 1
Format : AVC
Format/Info : Advanced Video Codec
Format profile : High@L3.2
Format settings : CABAC / 16 Ref Frames
Format settings, CABAC : Yes
Format settings, Reference fra : 16 frames
Codec ID : V_MPEG4/ISO/AVC
Duration : 8 h 13 min
Bit rate : 1 142 kb/s
Nominal bit rate : 1 038 kb/s
Width : 640 pixels
Height : 464 pixels
Display aspect ratio : 1.379
Frame rate mode : Constant
Frame rate : 23.976 (24000/1001) FPS
Color space : YUV
Chroma subsampling : 4:2:0
Bit depth : 8 bits
Scan type : Progressive
Bits/(Pixel*Frame) : 0.160
Stream size : 3.94 GiB (90%)
Writing library : x264 core 157 r2969 d4099dd
Encoding settings : cabac=1 / ref=16 / deblock=1:0:0 / analyse=0x3:0x133 / me=umh / subme=11 / psy=1 / psy_rd=1.00:0.00 / mixed_ref=1 / me_range=32 / chroma_me=1 / trellis=2 / 8x8dct=1 / cqm=0 / deadzone=21,11 / fast_pskip=1 / chroma_qp_offset=-2 / threads=14 / lookahead_threads=2 / sliced_threads=0 / nr=0 / decimate=1 / interlaced=0 / bluray_compat=0 / constrained_intra=0 / bframes=8 / b_pyramid=2 / b_adapt=2 / b_bias=0 / direct=3 / weightb=1 / open_gop=0 / weightp=2 / keyint=240 / keyint_min=23 / scenecut=40 / intra_refresh=0 / rc_lookahead=60 / rc=2pass / mbtree=1 / bitrate=1038 / ratetol=1.0 / qcomp=0.60 / qpmin=0 / qpmax=69 / qpstep=4 / cplxblur=20.0 / qblur=0.5 / ip_ratio=1.40 / aq=1:1.00
Language : English
Default : Yes
Forced : No
Audio
ID : 2
Format : AC-3
Format/Info : Audio Coding 3
Commercial name : Dolby Digital
Codec ID : A_AC3
Duration : 8 h 13 min
Bit rate mode : Constant
Bit rate : 128 kb/s
Channel(s) : 2 channels
Channel layout : L R
Sampling rate : 48.0 kHz
Frame rate : 31.250 FPS (1536 SPF)
Bit depth : 16 bits
Compression mode : Lossy
Stream size : 452 MiB (10%)
Language : English
Service kind : Complete Main
Default : Yes
Forced : No

Скринлист

[erzsebet.org].t2501239.torrent 
Торрент: Зарегистрирован [ 2019-06-12 22:57 ]

Скачать .torrent

Скачать

6 KB

Статус: проверено
Скачан: 57 раз
Размер: 4,38 GB
Поблагодарили: 0  Спасибо
terms.php
Связанные раздачи
Добавлен Темы Размер S / L Ссылка
08-Июн-19 07:26 Belladonna: Fetish Fanatic 4 (Belladonna / Evil Angel) [2006 г., Lesbian, Staight, Trans, Anal, Toys, DAP, Deepthroat, Hardcore, +BTS, DVDRemux] Brianna Love, Claire Adams, Danielle Foxxx, Katsuni, Sandra Romain, Sasha Grey, Vicki RichterОтв. 0 21,4 GB 1 | 0 Скачать .torrent
25-Авг-18 07:08 Belladonna: Fetish Fanatic 4 (Belladonna / Evil Angel) [2006 г., Lesbian, Staight, Trans, Anal, Toys, DAP, Deepthroat, Hardcore, +BTS, 3 x DVD9] Brianna Love, Claire Adams, Danielle Foxxx, Katsuni, Sandra Romain, Sasha Grey, Vicki RichterОтв. 0 22,49 GB | Скачать .torrent
[Профиль]  [ЛС] 
Показать сообщения:    
Ответить на тему

Текущее время: 21-Июн 01:21

Часовой пояс: UTC + 3



Вы не можете начинать темы
Вы не можете отвечать на сообщения
Вы не можете редактировать свои сообщения
Вы не можете удалять свои сообщения
Вы не можете голосовать в опросах
Вы не можете прикреплять файлы к сообщениям
Вы можете скачивать файлы