Hungarian Sex Service / Sex Service (Kovi / Helen Duval) [1997, Feature, Anal, Sex, SATRip]

Ответить на тему
Статистика раздачи
Размер:  2,13 GB   |    Зарегистрирован:  9 дней   |    Скачан:  0 раз

Сидов:

Пользователь ULR Отдано Скачано Отдача Загрузка
erzsebet ® 0 0- 0- 0- 0-
показаны данные только за текущую сессию
 
 
 
Автор Сообщение

erzsebet ®

Стаж: 14 лет

Сообщений: 39834

Откуда: Hungary

Создавать темы 11-Июн-2019 10:52  |  Сменить автора

[Цитировать] 

Год выпуска: 1997
Страна: Netherlands
Жанр: Feature, Anal, Sex
Язык: Французский
Продолжительность: 01:33:30
Режиссер: Kovi
Студия / Дистрибьютер: Helen Duval / VCA
В ролях:
Scene 1. Helen Duval, Andrew Youngman
Scene 2. Peggy Sue, Maria Bellucci, Deborah Valentine
Scene 3. Frank Gun
Scene 4. girl, Simona Osborn, John Walton
Scene 5. Helen Duval, Frank Gun, Steve Hard
Scene 6. Monica Orsini, Andrew Youngman
Scene 7. Regina Sipos, John Walton
Scene 8. Monica Orsini, Frank Gun, John Walton
Качество: SATRip
Формат: MKV
Видео: MPEG2 Video 544x576 (4:3) 25fps 3061kbps
Аудио: MPEG Audio 48000Hz stereo 192kbps

Тех данные

General
Unique ID : 21134710129631987063288082989214221812 (0xFE665A907F7AA7EB45EB1AD916E45F4)
Complete name : D:\Downloads\Hungarian Sex Service {erzsebet.org}.mkv
Format : Matroska
Format version : Version 4
File size : 2.13 GiB
Duration : 1 h 33 min
Overall bit rate mode : Constant
Overall bit rate : 3 257 kb/s
Movie name : Hungarian Sex Service {erzsebet.org}
Encoded date : UTC 2019-06-11 07:51:59
Writing application : mkvmerge v34.0.0 ('Sight and Seen') 64-bit
Writing library : libebml v1.3.7 + libmatroska v1.5.0
Video
ID : 1
Format : MPEG Video
Format version : Version 2
Format profile : Main@Main
Format settings : CustomMatrix / BVOP
Format settings, BVOP : Yes
Format settings, Matrix : Custom
Format settings, GOP : Variable
Format settings, picture struc : Frame
Codec ID : V_MPEG2
Codec ID/Info : MPEG 1 or 2 Video
Duration : 1 h 33 min
Bit rate mode : Constant
Bit rate : 3 061 kb/s
Maximum bit rate : 15.0 Mb/s
Width : 544 pixels
Height : 576 pixels
Display aspect ratio : 4:3
Frame rate mode : Constant
Frame rate : 25.000 FPS
Color space : YUV
Chroma subsampling : 4:2:0
Bit depth : 8 bits
Scan type : Interlaced
Scan order : Top Field First
Compression mode : Lossy
Bits/(Pixel*Frame) : 0.391
Time code of first frame : 00:00:00:00
Time code source : Group of pictures header
GOP, Open/Closed : Open
GOP, Open/Closed of first fram : Closed
Stream size : 2.00 GiB (94%)
Writing library : (c) 1998-2006 Womble Multimedia, Inc. / MPEG Video Wizard (12/2006) / Dec 13 2006
Language : Hungarian
Default : No
Forced : No
Audio
ID : 2
Format : MPEG Audio
Format version : Version 1
Format profile : Layer 2
Codec ID : A_MPEG/L2
Codec ID/Hint : MP2
Duration : 1 h 33 min
Bit rate mode : Constant
Bit rate : 192 kb/s
Channel(s) : 2 channels
Sampling rate : 48.0 kHz
Frame rate : 41.667 FPS (1152 SPF)
Compression mode : Lossy
Stream size : 128 MiB (6%)
Title : Stereo
Language : French
Default : Yes
Forced : No
Menu
00:00:00.000 : en:Chapter 01
00:06:08.880 : en:Chapter 02
00:11:01.200 : en:Chapter 03
00:16:23.880 : en:Chapter 04
00:22:18.840 : en:Chapter 05
00:27:26.520 : en:Chapter 06
00:32:37.560 : en:Chapter 07
00:37:34.560 : en:Chapter 08
00:42:36.960 : en:Chapter 09
00:47:50.640 : en:Chapter 10
00:52:56.640 : en:Chapter 11
00:57:44.520 : en:Chapter 12
01:02:30.480 : en:Chapter 13
01:07:29.280 : en:Chapter 14
01:12:13.440 : en:Chapter 15
01:18:06.240 : en:Chapter 16
01:23:18.240 : en:Chapter 17
01:29:05.280 : en:Chapter 18

Скринлист

[erzsebet.org].t2501304.torrent 
Торрент: Зарегистрирован [ 2019-06-11 10:57 ]

Скачать .torrent

Скачать

3 KB

Статус: проверено
Скачан: 0 раз
Размер: 2,13 GB
Поблагодарили: 0  Спасибо
terms.php
Связанные раздачи
Добавлен Темы Размер S / L Ссылка
03-Янв-19 01:27 Hungarian Sex Service / Sex Service (Kovi / Helen Duval) [1997, Feature, Anal, Sex, SATRip]Отв. 1 1,45 GB 0 | 2 Скачать .torrent
14-Окт-18 20:17 Hungarian Sex Service / Sex Service (Kovi / Helen Duval) [1997, Feature, Anal, Sex, SATRip]Отв. 0 1,48 GB | Скачать .torrent
13-Окт-18 08:28 Pornochic 8: Jessica / Jessica - Pornochic 8 & Hungarian Sex Service / Джесика порношик 8 / Секс-сервис (Hervé Bodilis & Kovi / Marc Dorcel & Helen Duval) [2005 & 1997, Feature, Anal, Sex, DVD5]Отв. 0 3,72 GB | Скачать .torrent
[Профиль]  [ЛС] 
Показать сообщения:    
Ответить на тему

Текущее время: 21-Июн 01:18

Часовой пояс: UTC + 3



Вы не можете начинать темы
Вы не можете отвечать на сообщения
Вы не можете редактировать свои сообщения
Вы не можете удалять свои сообщения
Вы не можете голосовать в опросах
Вы не можете прикреплять файлы к сообщениям
Вы можете скачивать файлы