L'honneur des Mariani / Clara's Secret / Die Ehre der Marianis / Маринкина честь (Tony del Duomo / Marc Dorcel) [2009, Feature, Foreign, Straight, DVDRemux] Jenny Baby, Kathy Sweet, Krystal De Boor, Tarra White, Yasmine

Ответить на тему
Статистика раздачи
Размер:  2.61 GB   |    Зарегистрирован:  3 месяца 7 дней   |    Скачан:  28 раз
Сидов:  1   Личеров:  1  
 
 
 
Автор Сообщение

erzsebet ®

Стаж: 17 лет

Сообщений: 244497

Создавать темы 11-Июн-2019 11:21  |  Сменить автора

[Цитировать] 

Год выпуска: 2009
Страна: Europe
Жанр: Feature, Foreign, Straight
Продолжительность: 01:31:34
Язык: Italiano
Режиссер: Tony del Duomo
Студия: Marc Dorcel
В ролях: Jenny Baby, Kathy Sweet, Krystal De Boor, Tarra White, Yasmine
Описание: She is really on fire Clara Mariani, the daughter of one of the biggest landowner of the region. When the night is down, while her father is asleep, she jumps on her bike to join two young males to discover the pleasures of rough sex. One morning, the whole family discovers, hung on the front-door, two pictures of the young woman…in action! A waspish comment says:”You’re daughter is a whore!” From this moment, the family honor is involved. How to stop the gossips? Wouldn’t it be better to marry her with a brave an innocent young man? All the more, Clara keeps escaping from her bedroom to carry on her meetings…At the same time, the seasonal workers enjoy caresses and advances from the sons of family. In the fields, the most perverse games are played. Cunnilingus, fellatios, anal and vaginal penetrations succeed to each other…A gallery of sexual feats presented with humour wich reaches peaks of eroticism and sensuality.
Качество: DVDRemux
Формат: MKV
Видео: MPEG2 Video 720x480 (16:9) 29.97fps 3882kbps
Аудио: Dolby AC3 48000Hz stereo 192kbps

тех данные

General
Unique ID : 112503858454572242839277739215259252068 (0x54A37479F0F83074FEB1EFE5F9B53564)
Complete name : D:\Downloads\L'Honneur des Mariani [erzsebet.org] DVDRemux.mkv
Format : Matroska
Format version : Version 4
File size : 2.61 GiB
Duration : 1 h 31 min
Overall bit rate mode : Variable
Overall bit rate : 4 077 kb/s
Movie name : L'Honneur des Mariani [erzsebet.org] DVDRemux
Encoded date : UTC 2019-06-11 08:15:00
Writing application : mkvmerge v34.0.0 ('Sight and Seen') 64-bit
Writing library : libebml v1.3.7 + libmatroska v1.5.0
Video
ID : 1
Format : MPEG Video
Format version : Version 2
Format profile : Main@Main
Format settings : BVOP
Format settings, BVOP : Yes
Format settings, Matrix : Default
Format settings, GOP : M=3, N=13
Format settings, picture struc : Frame
Codec ID : V_MPEG2
Codec ID/Info : MPEG 1 or 2 Video
Duration : 1 h 31 min
Bit rate mode : Variable
Bit rate : 3 882 kb/s
Maximum bit rate : 7 800 kb/s
Width : 720 pixels
Height : 480 pixels
Display aspect ratio : 16:9
Original display aspect ratio : 2.40:1
Frame rate mode : Constant
Frame rate : 29.970 (30000/1001) FPS
Standard : NTSC
Color space : YUV
Chroma subsampling : 4:2:0
Bit depth : 8 bits
Scan type : Interlaced
Scan order : Top Field First
Compression mode : Lossy
Bits/(Pixel*Frame) : 0.375
Time code of first frame : 00:01:12;26
Time code source : Group of pictures header
GOP, Open/Closed : Open
Stream size : 2.48 GiB (95%)
Language : French
Default : No
Forced : No
Color primaries : BT.601 NTSC
Transfer characteristics : BT.601
Matrix coefficients : BT.601
Audio
ID : 2
Format : AC-3
Format/Info : Audio Coding 3
Commercial name : Dolby Digital
Codec ID : A_AC3
Duration : 1 h 31 min
Bit rate mode : Constant
Bit rate : 192 kb/s
Channel(s) : 2 channels
Channel layout : L R
Sampling rate : 48.0 kHz
Frame rate : 31.250 FPS (1536 SPF)
Bit depth : 16 bits
Compression mode : Lossy
Stream size : 126 MiB (5%)
Title : Stereo
Language : Italian
Service kind : Complete Main
Default : Yes
Forced : No
Menu
00:00:00.000 : en:Chapter 01
00:10:11.611 : en:Chapter 02
00:22:08.193 : en:Chapter 03
00:32:08.526 : en:Chapter 04
00:43:15.225 : en:Chapter 05
00:53:21.198 : en:Chapter 06
01:07:58.274 : en:Chapter 07
01:22:08.023 : en:Chapter 08

скринлист

[erzsebet.org].t2501305.torrent
Торрент: Зарегистрирован [ 2019-06-11 11:21 ]

Скачать .torrent

Скачать

3 KB

Статус: проверено
Скачан: 28 раз
Размер: 2.61 GB
Поблагодарили: 1  Спасибо   (список)
terms.php
[Профиль]  [ЛС] 
Показать сообщения:    
Ответить на тему

Текущее время: 18-Сен 15:15

Часовой пояс: UTC + 3



Вы не можете начинать темы
Вы не можете отвечать на сообщения
Вы не можете редактировать свои сообщения
Вы не можете удалять свои сообщения
Вы не можете голосовать в опросах
Вы не можете прикреплять файлы к сообщениям
Вы можете скачивать файлы