Max's Classics, Del 1: 1980-1987 / 20 лет студии MAX, часть 1 (Max's) [2000 г., Classic Porn, Compilation, DVDRemux]

Ответить на тему
Статистика раздачи
Размер:  6.86 GB   |    Зарегистрирован:  3 месяца 7 дней   |    Скачан:  3 раза
Сидов:  1   Личеров:  1  
 
 
 
Автор Сообщение

erzsebet ®

Стаж: 17 лет

Сообщений: 244497

Создавать темы 11-Июн-2019 12:03  |  Сменить автора

[Цитировать] 

Max's Classics, Del 1: 1980-1987
20 лет студии MAX, часть 1
Год выпуска: 2000 г.
Страна: Sverige / Швеция
Жанр: Classic Porn, Compilation
Продолжительность: 03:58:53
Язык: Svenska
Студия: Max's
В ролях:
Linda Lovelace, Ginger Lynn, Seka, Teresa Orlowski, Angel, Shauna Grant, Anette Haven, Marilyn Chambers, Raquel Ashley, Candi Evans, Jeanette Littledove ...
Описание:
Студии Max's в 2000 году исполнилось 20 лет. К этому знаменательному событию она подготовила сборники лучших клипов, выходивших в период с 1980 по 2000 год.
Качество: DVDRemux
Формат: MKV
Видео: MPEG2 Video 720x576 (4:3) 25fps 3918Kbps
Аудио: Dolby AC3 48000Hz stereo 192Kbps

Тех. даннные

General
Unique ID : 130894778427978812794135940530198906560 (0x62796AD663F058E5D45B545EFEBD86C0)
Complete name : D:\Downloads\Max's Classics Del 1 - 1980-1987 [erzsebet.org] DVDRemux.mkv
Format : Matroska
Format version : Version 4
File size : 6.86 GiB
Duration : 3 h 58 min
Overall bit rate mode : Variable
Overall bit rate : 4 112 kb/s
Movie name : Max's Classics, Del 1: 1980-1987 [erzsebet.org] DVDRemux
Encoded date : UTC 2019-06-11 08:56:31
Writing application : mkvmerge v34.0.0 ('Sight and Seen') 64-bit
Writing library : libebml v1.3.7 + libmatroska v1.5.0
Video
ID : 1
Format : MPEG Video
Format version : Version 2
Format profile : Main@Main
Format settings : BVOP
Format settings, BVOP : Yes
Format settings, Matrix : Default
Format settings, GOP : M=3, N=13
Format settings, picture struc : Frame
Codec ID : V_MPEG2
Codec ID/Info : MPEG 1 or 2 Video
Duration : 3 h 58 min
Bit rate mode : Variable
Bit rate : 3 918 kb/s
Maximum bit rate : 9 000 kb/s
Width : 720 pixels
Height : 576 pixels
Display aspect ratio : 4:3
Frame rate mode : Constant
Frame rate : 25.000 FPS
Standard : PAL
Color space : YUV
Chroma subsampling : 4:2:0
Bit depth : 8 bits
Scan type : Interlaced
Scan order : Top Field First
Compression mode : Lossy
Bits/(Pixel*Frame) : 0.378
Time code of first frame : 01:10:18:06
Time code source : Group of pictures header
GOP, Open/Closed : Open
Stream size : 6.54 GiB (95%)
Language : Swedish
Default : No
Forced : No
Color primaries : BT.601 PAL
Transfer characteristics : BT.470 System B/G
Matrix coefficients : BT.470 System B/G
Audio
ID : 2
Format : AC-3
Format/Info : Audio Coding 3
Commercial name : Dolby Digital
Codec ID : A_AC3
Duration : 3 h 58 min
Bit rate mode : Constant
Bit rate : 192 kb/s
Channel(s) : 2 channels
Channel layout : L R
Sampling rate : 48.0 kHz
Frame rate : 31.250 FPS (1536 SPF)
Bit depth : 16 bits
Compression mode : Lossy
Stream size : 328 MiB (5%)
Title : Stereo
Language : Swedish
Service kind : Complete Main
Default : Yes
Forced : No
Menu
00:00:00.000 : en:Chapter 01
00:11:08.200 : en:Chapter 02
00:24:25.880 : en:Chapter 03
00:31:59.840 : en:Chapter 04
00:37:05.080 : en:Chapter 05
00:47:53.000 : en:Chapter 06
00:59:41.240 : en:Chapter 07
01:05:46.560 : en:Chapter 08
01:11:02.200 : en:Chapter 09
01:20:57.080 : en:Chapter 10
01:27:49.960 : en:Chapter 11
01:34:23.600 : en:Chapter 12
01:40:48.400 : en:Chapter 13
01:46:45.120 : en:Chapter 14
01:53:07.320 : en:Chapter 01
01:57:38.760 : en:Chapter 02
02:04:15.520 : en:Chapter 03
02:11:45.320 : en:Chapter 04
02:17:03.040 : en:Chapter 05
02:23:17.960 : en:Chapter 06
02:28:03.960 : en:Chapter 07
02:35:22.840 : en:Chapter 08
02:43:41.680 : en:Chapter 09
02:45:08.000 : en:Chapter 10
02:52:25.320 : en:Chapter 11
03:00:48.160 : en:Chapter 12
03:06:28.240 : en:Chapter 13
03:15:50.880 : en:Chapter 14
03:22:32.840 : en:Chapter 15
03:28:29.040 : en:Chapter 16
03:33:36.360 : en:Chapter 17
03:40:47.080 : en:Chapter 18
03:43:54.800 : en:Chapter 19
03:45:58.560 : en:Chapter 20
03:47:49.320 : en:Chapter 21
03:49:50.480 : en:Chapter 22
03:52:58.200 : en:Chapter 23
03:56:00.720 : en:Chapter 24
03:56:04.880 : en:Chapter 25

Скрин-лист

[erzsebet.org].t2501308.torrent
Торрент: Зарегистрирован [ 2019-06-11 12:06 ]

Скачать .torrent

Скачать

9 KB

Статус: проверено
Скачан: 3 раз
Размер: 6.86 GB
Поблагодарили: 1  Спасибо   (список)
terms.php
Связанные раздачи
Добавлен Темы Размер S / L Ссылка
27-Авг-19 10:24 20 лет студии MAX, часть 1 / Max's Classics Del 1 1980-1987 (Max) [2000 г., Classic, VHSRip]Отв. 0 1.38 GB | Скачать .torrent
22-Окт-18 14:44 Max's Classics, Del 1: 1980-1987 / 20 лет студии MAX, часть 1 (Max's) [2000 г., Classic Porn, Compilation, 2x DVD5]Отв. 0 7.32 GB | Скачать .torrent
[Профиль]  [ЛС] 
Показать сообщения:    
Ответить на тему

Текущее время: 18-Сен 15:17

Часовой пояс: UTC + 3



Вы не можете начинать темы
Вы не можете отвечать на сообщения
Вы не можете редактировать свои сообщения
Вы не можете удалять свои сообщения
Вы не можете голосовать в опросах
Вы не можете прикреплять файлы к сообщениям
Вы можете скачивать файлы