Peter North's Megapåle 1 / Peters Megapåle 1 (Peter North / Max's) [2002 г., All Sex / Gonzo, Compilation, DVDRemux]

Ответить на тему
Статистика раздачи
Размер:  4,24 GB   |    Зарегистрирован:  14 дней   |    Скачан:  3 раза

Сидов:

Пользователь ULR Отдано Скачано Отдача Загрузка
erzsebet ® 0 0- 0- 0- 0-
показаны данные только за текущую сессию
 
 
 
Автор Сообщение

erzsebet ®

Стаж: 14 лет

Сообщений: 40220

Откуда: Hungary

Создавать темы 11-Июн-2019 12:37  |  Сменить автора

[Цитировать] 

Peter North's Megapåle 1
Год выпуска: 2002 г.
Страна: Sverige / USA
Жанр: All Sex / Gonzo, Compilation
Продолжительность: 02:44:13
Язык: Английский
Режиссер: Peter North
Студия: Peter North / New Sensations / MAX'S
В ролях: Krystal Steal, Leila Taylor, Hanna Harper, Sabrine Maui, Domino, Jessica, Victoria Wood, Ashley, Jenna Haze, August, Heather Lere, Peter North и др.
Описание:
Peter North's Megapale - это шведское переиздание американской серии фильмов "North Pole" ("Северный полюс").
Данное видео включает в себя все сцены из North Pole 24 и North Pole 25.
Качество: DVDRemux
Формат: MKV
Видео: MPEG2 Video 704x576 (4:3) 25fps 3499kbps
Аудио: Dolby AC3 48000Hz stereo 192kbps

Тех данные

General
Unique ID : 314966389576744425338791755661625280848 (0xECF451F3219B013B33AFDA3B11BC4950)
Complete name : D:\Downloads\Peter North's Megapåle 1 [erzsebet.org] DVDRemux.mkv
Format : Matroska
Format version : Version 4
File size : 4.24 GiB
Duration : 2 h 44 min
Overall bit rate mode : Variable
Overall bit rate : 3 693 kb/s
Movie name : Peter North's Megapåle 1 [erzsebet.org] DVDRemux
Encoded date : UTC 2019-06-11 09:30:44
Writing application : mkvmerge v34.0.0 ('Sight and Seen') 64-bit
Writing library : libebml v1.3.7 + libmatroska v1.5.0
Video
ID : 1
Format : MPEG Video
Format version : Version 2
Format profile : Main@Main
Format settings : BVOP
Format settings, BVOP : Yes
Format settings, Matrix : Default
Format settings, GOP : M=3, N=13
Format settings, picture struc : Frame
Codec ID : V_MPEG2
Codec ID/Info : MPEG 1 or 2 Video
Duration : 2 h 44 min
Bit rate mode : Variable
Bit rate : 3 499 kb/s
Maximum bit rate : 7 500 kb/s
Width : 704 pixels
Height : 576 pixels
Display aspect ratio : 4:3
Frame rate mode : Constant
Frame rate : 25.000 FPS
Standard : PAL
Color space : YUV
Chroma subsampling : 4:2:0
Bit depth : 8 bits
Scan type : Interlaced
Scan order : Top Field First
Compression mode : Lossy
Bits/(Pixel*Frame) : 0.345
Time code of first frame : 10:00:00:00
Time code source : Group of pictures header
GOP, Open/Closed : Open
Stream size : 4.01 GiB (95%)
Language : Swedish
Default : No
Forced : No
Color primaries : BT.601 PAL
Transfer characteristics : BT.470 System B/G
Matrix coefficients : BT.470 System B/G
Audio
ID : 2
Format : AC-3
Format/Info : Audio Coding 3
Commercial name : Dolby Digital
Codec ID : A_AC3
Duration : 2 h 44 min
Bit rate mode : Constant
Bit rate : 192 kb/s
Channel(s) : 2 channels
Channel layout : L R
Sampling rate : 48.0 kHz
Frame rate : 31.250 FPS (1536 SPF)
Bit depth : 16 bits
Compression mode : Lossy
Stream size : 226 MiB (5%)
Title : Stereo
Language : Swedish
Service kind : Complete Main
Default : Yes
Forced : No
Menu
00:00:00.000 : en:Chapter 01
00:01:50.000 : en:Chapter 02
00:18:16.160 : en:Chapter 03
00:39:45.760 : en:Chapter 04
00:53:38.280 : en:Chapter 05
01:07:50.560 : en:Chapter 06
01:22:08.040 : en:Chapter 07
01:39:20.760 : en:Chapter 08
02:02:07.840 : en:Chapter 09
02:12:33.400 : en:Chapter 10
02:29:38.320 : en:Chapter 11

Cкринлист

[erzsebet.org].t2501309.torrent 
Торрент: Зарегистрирован [ 2019-06-11 12:37 ]

Скачать .torrent

Скачать

6 KB

Статус: проверено
Скачан: 3 раз
Размер: 4,24 GB
Поблагодарили: 1  Спасибо   (список)
terms.php
Связанные раздачи
Добавлен Темы Размер S / L Ссылка
22-Янв-19 16:54 Peter North's Megapåle 1 / Peters Megapåle 1(Peter North / Max's) [2002 г., All Sex / Gonzo, Compilation, DVD5]Отв. 0 4,34 GB | Скачать .torrent
[Профиль]  [ЛС] 
Показать сообщения:    
Ответить на тему

Текущее время: 25-Июн 17:45

Часовой пояс: UTC + 3



Вы не можете начинать темы
Вы не можете отвечать на сообщения
Вы не можете редактировать свои сообщения
Вы не можете удалять свои сообщения
Вы не можете голосовать в опросах
Вы не можете прикреплять файлы к сообщениям
Вы можете скачивать файлы