Superfuckers 7 (Pierre Woodman / Private) [2001 г., Sex, Anal Sex, Foreign, Group Sex, DP, European, DVDRemux] Sandra Kalerman, Monica, Vivienne, Sunny Blue, Cardina, Dita, Ann Kiray, Babylou, Gaby Black

Ответить на тему
Статистика раздачи
Размер:  5,59 GB   |    Зарегистрирован:  14 дней   |    Скачан:  1 раз

Сидов:

Пользователь ULR Отдано Скачано Отдача Загрузка
erzsebet ® 0 1469644814 MB 0- 0- 0-
показаны данные только за текущую сессию
 
 
 
Автор Сообщение

erzsebet ®

Стаж: 14 лет

Сообщений: 40220

Откуда: Hungary

Создавать темы 11-Июн-2019 12:57  |  Сменить автора

[Цитировать] 

Superfuckers 7


Title: Superfuckers 7
Release Date: 2001
Country: Europe
Genres: Sex, Anal Sex, Foreign, Group Sex, DP, European
Language: English
Duration: 02:55:41
Director: Pierre Woodman
Studio / Distributor: Private
Starring:
Scene 1. Babylou, Pierre Woodman
Scene 2. Sunny Blue, Bob Terminator, James Brossman, Pascal St. James, Sebastian Barrio
Scene 3. Sandra Iron, James Brossman, Pierre Woodman
Scene 4. Gabi Black, Monica, Alain Deloin, Bob Terminator, Chris Mountain
Scene 5. Morgane Gole, James Brossman, Sebastian Barrio
Scene 6. Ann Kiray, Bob Terminator, Sebastian Barrio
Description:
How the hell does he do it? Pierre Woodman has a pick-up power most men would die for, working with a selection of the foxiest babes around, be they professionals or simply charmed right off the street. All are putty in Pierre's hands and boy - does he know how to mould them!
Quality: DVDRemux
Format: MKV
Video: MPEG2 Video 720x576 (4:3) 25fps 4335kbps
Audio: Dolby AC3 48000Hz stereo 192kbps

MI

General
Unique ID : 284245948834580117179385740555115460321 (0xD5D7C7480C808B551662469E192A76E1)
Complete name : D:\Downloads\Private Superfuckers 7 [erzsebet.org] DVDRemux.mkv
Format : Matroska
Format version : Version 4
File size : 5.59 GiB
Duration : 2 h 55 min
Overall bit rate mode : Variable
Overall bit rate : 4 551 kb/s
Movie name : Private Superfuckers 7 [erzsebet.org] DVDRemux
Encoded date : UTC 2019-06-11 09:49:35
Writing application : mkvmerge v34.0.0 ('Sight and Seen') 64-bit
Writing library : libebml v1.3.7 + libmatroska v1.5.0
Video
ID : 1
Format : MPEG Video
Format version : Version 2
Format profile : Main@Main
Format settings : CustomMatrix / BVOP
Format settings, BVOP : Yes
Format settings, Matrix : Custom
Format settings, GOP : M=3, N=12
Format settings, picture struc : Frame
Codec ID : V_MPEG2
Codec ID/Info : MPEG 1 or 2 Video
Duration : 2 h 55 min
Bit rate mode : Variable
Bit rate : 4 355 kb/s
Width : 720 pixels
Height : 576 pixels
Display aspect ratio : 4:3
Frame rate mode : Constant
Frame rate : 25.000 FPS
Standard : PAL
Color space : YUV
Chroma subsampling : 4:2:0
Bit depth : 8 bits
Scan type : Interlaced
Scan order : Top Field First
Compression mode : Lossy
Bits/(Pixel*Frame) : 0.420
Time code of first frame : 10:00:00:00
Time code source : Group of pictures header
GOP, Open/Closed : Closed
Stream size : 5.34 GiB (96%)
Language : English
Default : No
Forced : No
Audio
ID : 2
Format : AC-3
Format/Info : Audio Coding 3
Commercial name : Dolby Digital
Codec ID : A_AC3
Duration : 2 h 55 min
Bit rate mode : Constant
Bit rate : 192 kb/s
Channel(s) : 2 channels
Channel layout : L R
Sampling rate : 48.0 kHz
Frame rate : 31.250 FPS (1536 SPF)
Bit depth : 16 bits
Compression mode : Lossy
Stream size : 241 MiB (4%)
Title : Stereo
Language : English
Service kind : Complete Main
Default : Yes
Forced : No
Menu
00:00:00.080 : en:Chapter 01
00:01:32.960 : en:Chapter 02
00:18:49.400 : en:Chapter 03
00:46:01.280 : en:Chapter 04
01:26:48.320 : en:Chapter 05
01:41:36.280 : en:Chapter 06
02:13:19.920 : en:Chapter 07
02:33:20.400 : en:Chapter 08

Screenshots

[erzsebet.org].t2501310.torrent 
Торрент: Зарегистрирован [ 2019-06-11 12:57 ]

Скачать .torrent

Скачать

7 KB

Статус: проверено
Скачан: 1 раз
Размер: 5,59 GB
Поблагодарили: 0  Спасибо
terms.php
Связанные раздачи
Добавлен Темы Размер S / L Ссылка
31-Май-19 00:56 Superfuckers 7 (Pierre Woodman / Private) [2001 г., Sex, Anal Sex, Foreign, Group Sex, DP, European, DVD9] Sandra Kalerman, Monica, Vivienne, Sunny Blue, Cardina, Dita, Ann Kiray, Babylou, Gaby BlackОтв. 0 7,14 GB | Скачать .torrent
29-Май-19 00:47 Superfuckers 7 (Pierre Woodman / Private) [2001 г., Sex, Anal Sex, Foreign, Group Sex, DP, European, DVDRip] Sandra Kalerman, Monica, Vivienne, Sunny Blue, Cardina, Dita, Ann Kiray, Babylou, Gaby BlackОтв. 0 2,26 GB 1 | 0 Скачать .torrent
[Профиль]  [ЛС] 
Показать сообщения:    
Ответить на тему

Текущее время: 25-Июн 17:45

Часовой пояс: UTC + 3



Вы не можете начинать темы
Вы не можете отвечать на сообщения
Вы не можете редактировать свои сообщения
Вы не можете удалять свои сообщения
Вы не можете голосовать в опросах
Вы не можете прикреплять файлы к сообщениям
Вы можете скачивать файлы