Tender Flesh / Нежная плоть (Jesus Franco) [1997, erotic, horror, canibal, DVDRip] VO [rus]

Ответить на тему
Статистика раздачи
Размер:  1,37 GB   |    Зарегистрирован:  9 дней   |    Скачан:  1 раз

Полного источника не было: 7 дней

 
 
 
Автор Сообщение

erzsebet ®

Стаж: 14 лет

Сообщений: 39834

Откуда: Hungary

Создавать темы 11-Июн-2019 22:37  |  Сменить автора

[Цитировать] 

Tender Flesh / Нежная плоть
Страна: Испания
Жанр: erotic, horror, canibal, ужасы, каннибализм, джунгли
Год выпуска: 1997
Продолжительность: 01:31:19
Перевод: Авторский, одноголосый закадровый Антон Алексеев
Cубтитры: нет
Оригинальная аудиодорожка: английский
Режиссер: Jesus Franco / Джесс Франко
В ролях: Lina Romay, Monique Parent, Aldo Sambrell, Analía Ivars
Описание:
Актриска-блондинко, приняв на грудь, после очередного кастинга, оказывается, по обыкновению, на острове, населённом извращенцами-богачами..
Там она попадает в буриданово-ослиное положение, не в силах выбрать из множества предложенных ей на выбор развлечений - подвергнуться эротическим домогательствам хозяйки острова (Лина Ромей), быть съеденной проголодавшимися гостями хозяйки, или стать целью, в планирующейся мужем хозяйки охоте на человека..
Сэмпл: http://multi-up.com/1071604
Качество видео: DVDRip
Формат видео: AVI
Видео: PAR 10:11, 708x388@708x428, 29.970 fps, DivX Codec 6.8.5 ~1748 kbps avg, 0.21 bit/pixel
Аудио 1: 48 kHz, AC3 Dolby Digital, 2/0 (L,R) ch, ~192 kbps, Russian
Аудио 2: 48 kHz, AC3 Dolby Digital, 2/0 (L,R) ch, ~192 kbps, English

MediaInfo

General
Complete name : Tender Flesh.avi
Format : AVI
Format/Info : Audio Video Interleave
File size : 1.37 GiB
Duration : 1h 31mn
Overall bit rate : 2 151 Kbps
Video
ID : 0
Format : MPEG-4 Visual
Format settings, BVOP : 1
Format settings, QPel : No
Format settings, GMC : No warppoints
Format settings, Matrix : Default (H.263)
Codec ID : DX50
Codec ID/Hint : DivX 5
Duration : 1h 31mn
Bit rate : 1 749 Kbps
Width : 708 pixels
Height : 388 pixels
Display aspect ratio : 1.659
Frame rate : 29.970 fps
Color space : YUV
Chroma subsampling : 4:2:0
Bit depth : 8 bits
Scan type : Progressive
Compression mode : Lossy
Bits/(Pixel*Frame) : 0.212
Stream size : 1.12 GiB (81%)
Writing library : DivX 6.8.5 (UTC 2009-08-20)
Audio #1
ID : 1
Format : AC-3
Format/Info : Audio Coding 3
Mode extension : CM (complete main)
Codec ID : 2000
Duration : 1h 31mn
Bit rate mode : Constant
Bit rate : 192 Kbps
Channel(s) : 2 channels
Channel positions : Front: L R
Sampling rate : 48.0 KHz
Bit depth : 16 bits
Compression mode : Lossy
Stream size : 125 MiB (9%)
Alignment : Aligned on interleaves
Interleave, duration : 33 ms (1.00 video frame)
Interleave, preload duration : 512 ms
Audio #2
ID : 2
Format : AC-3
Format/Info : Audio Coding 3
Mode extension : CM (complete main)
Codec ID : 2000
Duration : 1h 31mn
Bit rate mode : Constant
Bit rate : 192 Kbps
Channel(s) : 2 channels
Channel positions : Front: L R
Sampling rate : 48.0 KHz
Bit depth : 16 bits
Compression mode : Lossy
Stream size : 125 MiB (9%)
Alignment : Aligned on interleaves
Interleave, duration : 33 ms (1.00 video frame)
Interleave, preload duration : 512 ms

Скринлисты


[erzsebet.org].t2501337.torrent 
Торрент: Зарегистрирован [ 2019-06-11 22:37 ]

Скачать .torrent

Скачать

14 KB

Статус: проверено
Скачан: 1 раз
Размер: 1,37 GB
Поблагодарили: 0  Спасибо
terms.php
[Профиль]  [ЛС] 
Показать сообщения:    
Ответить на тему

Текущее время: 21-Июн 01:18

Часовой пояс: UTC + 3



Вы не можете начинать темы
Вы не можете отвечать на сообщения
Вы не можете редактировать свои сообщения
Вы не можете удалять свои сообщения
Вы не можете голосовать в опросах
Вы не можете прикреплять файлы к сообщениям
Вы можете скачивать файлы