Filthy Rich / Swedish Erotica 43 / Развратные богачи (Michael Zen / Caballero) [1980 г., Feature, Anal, DP, Classic, DVDRip] Jesie St. James, Lisa De Leeuw, Samantha Fox, Vanessa del Rio

Ответить на тему
Статистика раздачи
Размер:  1,35 GB   |    Зарегистрирован:  8 дней   |    Скачан:  30 раз

Сидов:

Пользователь ULR Отдано Скачано Отдача Загрузка
Anonymous 0 0- 0- 0- 0-
stalker-den 0 0- 0- 0- 0-
Anderwud 0 0- 0- 0- 0-
ramilt 0 0- 0- 0- 0-
silur 0 0- 0- 0- 0-
egorka 0 0- 0- 0- 0-
nektogans 0 0- 0- 0- 0-
XXT 0 0- 0- 0- 0-
erzsebet ® 0 0- 0- 0- 0-
PriХан 0 0- 0- 0- 0-
orion833000 0 0- 0- 0- 0-
thorgrim 0 0- 0- 0- 0-
Гость 0 0- 0- 0- 0-
CrazyClaw 0 0- 0- 0- 0-
vorel 0 0- 0- 0- 0-
veterand 0 0- 0- 0- 0-
Intellect 0 0- 0- 0- 0-
Vavan1950 0 0- 0- 0- 0-
Lelik_kng 0 0- 0- 0- 0-
Thaiman 0 0- 0- 0- 0-
kds83 0 0- 0- 0- 0-
rozisknik969 0 0- 0- 0- 0-
MiXail 0 0- 0- 0- 0-
iloveerzsebet 0 0- 0- 0- 0-
Genadiy84 0 0- 0- 0- 0-
Admin 0 0- 0- 0- 0-
Из страны чудес 0 0- 0- 0- 0-
yteujlfnm 0 0- 0- 0- 0-
ehag 0 0- 0- 0- 0-
drew 0 0- 0- 0- 0-
kakocb 0 0- 0- 0- 0-
terpigorec 0 0- 0- 0- 0-
novkino8 0 0- 0- 0- 0-
Tim 0 0- 0- 0- 0-
danharris859 0 0- 0- 0- 0-
показаны данные только за текущую сессию
 
 
 
Автор Сообщение

erzsebet ®

Стаж: 14 лет

Сообщений: 39834

Откуда: Hungary

Создавать темы 12-Июн-2019 03:53  |  Сменить автора

[Цитировать] 

Filthy Rich
Swedish Erotica Film 1135
Swedish Erotica Film 290
Swedish Erotica 43
Развратные богачи
- Год производства: 1980 г.
Страна: USA
Жанр: Feature, Anal, DP, Classic
Продолжительность: 01:20:31
Язык: English
Режиссер: Michael Zen
Студия: Caballero
В ролях: Jesie St. James, Lisa De Leeuw, Samantha Fox, Vanessa del Rio, George Payne, Herschel Savage, Jack Wrangler, Paul Thomas, R.J. Reynolds, Randy West
Описание: The secret pleasures of those who have it made! A frigid rich couple swap identities with their maid and butler and play out their fantasies. A hilarious light-comedy that boasts some superior superstar sex.
По сценам:
Scene 1. Jesie St. James, Herschel Savage
Scene 2. Samantha Fox, Jack Wrangler
Scene 3. Vanessa del Rio, Herschel Savage
Scene 4. Jesie St. James
Scene 5. Jesie St. James, Randy West
Scene 6. Lisa De Leeuw, Herschel Savage
Scene 7. Samantha Fox, Jack Wrangler
Scene 8. Vanessa del Rio, George Payne, R.J. Reynolds
Scene 9. others, Samantha Fox
Scene 10. Jack Wrangler
Качество: DVDRip
Формат: MP4
Видео: MPEG4 Video (H264) 632x480 29.97fps 2200kbps
Аудио: AAC 48000Hz stereo 192kbps

Тех данные

General
Complete name : D:\Downloads\Filthy Rich [erzsebet.org] DVDRip.mp4
Format : MPEG-4
Format profile : Base Media / Version 2
Codec ID : mp42 (isom/iso2/avc1/mp41)
File size : 1.35 GiB
Duration : 1 h 20 min
Overall bit rate mode : Variable
Overall bit rate : 2 400 kb/s
Movie name : The Filthy Rich [erzsebet.org]
Encoded date : UTC 2019-06-12 08:32:44
Tagged date : UTC 2019-06-12 08:32:44
Writing application : HandBrake 0.10.5 2016021100
Video
ID : 1
Format : AVC
Format/Info : Advanced Video Codec
Format profile : High@L4.1
Format settings : CABAC / 8 Ref Frames
Format settings, CABAC : Yes
Format settings, Reference fra : 8 frames
Codec ID : avc1
Codec ID/Info : Advanced Video Coding
Duration : 1 h 20 min
Bit rate : 2 200 kb/s
Width : 632 pixels
Height : 480 pixels
Display aspect ratio : 4:3
Frame rate mode : Variable
Frame rate : 29.970 (29970/1000) FPS
Minimum frame rate : 0.494 FPS
Maximum frame rate : 30.303 FPS
Color space : YUV
Chroma subsampling : 4:2:0
Bit depth : 8 bits
Scan type : Progressive
Bits/(Pixel*Frame) : 0.242
Stream size : 1.24 GiB (92%)
Writing library : x264 core 142 r2479 dd79a61
Encoding settings : cabac=1 / ref=8 / deblock=1:-1:-1 / analyse=0x3:0x133 / me=umh / subme=9 / psy=1 / psy_rd=1.00:0.15 / mixed_ref=1 / me_range=16 / chroma_me=1 / trellis=2 / 8x8dct=1 / cqm=0 / deadzone=21,11 / fast_pskip=1 / chroma_qp_offset=-3 / threads=6 / lookahead_threads=1 / sliced_threads=0 / nr=0 / decimate=1 / interlaced=0 / bluray_compat=0 / constrained_intra=0 / bframes=3 / b_pyramid=2 / b_adapt=2 / b_bias=0 / direct=3 / weightb=1 / open_gop=0 / weightp=2 / keyint=300 / keyint_min=30 / scenecut=40 / intra_refresh=0 / rc_lookahead=60 / rc=2pass / mbtree=1 / bitrate=2200 / ratetol=1.0 / qcomp=0.60 / qpmin=0 / qpmax=69 / qpstep=4 / cplxblur=20.0 / qblur=0.5 / vbv_maxrate=62500 / vbv_bufsize=78125 / nal_hrd=none / filler=0 / ip_ratio=1.40 / aq=1:1.00
Encoded date : UTC 2019-06-12 08:32:44
Tagged date : UTC 2019-06-12 08:32:44
Color range : Limited
Color primaries : BT.601 NTSC
Transfer characteristics : BT.709
Matrix coefficients : BT.601
Codec configuration box : avcC
Audio
ID : 2
Format : AAC LC
Format/Info : Advanced Audio Codec Low Complexity
Codec ID : mp4a-40-2
Duration : 1 h 20 min
Bit rate mode : Variable
Bit rate : 192 kb/s
Channel(s) : 2 channels
Channel layout : L R
Sampling rate : 48.0 kHz
Frame rate : 46.875 FPS (1024 SPF)
Compression mode : Lossy
Stream size : 111 MiB (8%)
Title : Stereo / Stereo
Language : English
Default : Yes
Alternate group : 1
Encoded date : UTC 2019-06-12 08:32:44
Tagged date : UTC 2019-06-12 08:32:44

Скринлист

[erzsebet.org].t2501346.torrent 
Торрент: Зарегистрирован [ 2019-06-12 13:09 ]

Скачать .torrent

Скачать

2 KB

Статус: проверено
Скачан: 30 раз
Размер: 1,35 GB
Поблагодарили: 1  Спасибо   (список)
terms.php
Связанные раздачи
Добавлен Темы Размер S / L Ссылка
12-Июн-19 10:21 Filthy Rich / Swedish Erotica 43 / Развратные богачи (Michael Zen / Caballero) [1980 г., Feature, Anal, DP, Classic, DVD5] Jesie St. James, Lisa De Leeuw, Samantha Fox, Vanessa del RioОтв. 0 4,21 GB 1 | 0 Скачать .torrent
[Профиль]  [ЛС] 
Показать сообщения:    
Ответить на тему

Текущее время: 21-Июн 01:19

Часовой пояс: UTC + 3



Вы не можете начинать темы
Вы не можете отвечать на сообщения
Вы не можете редактировать свои сообщения
Вы не можете удалять свои сообщения
Вы не можете голосовать в опросах
Вы не можете прикреплять файлы к сообщениям
Вы можете скачивать файлы