Kasshoku orient bijo to shuujuu seikou - Motion anime / Selfish sakuseikeiyaku - The motion anime of brown orient beautiful woman and master and servant sex - evil spirit (Apataito / Appetite / survive) (ep. 1 of 1) [cen] [2019, idemon, kenomomimi, big breast, paizuri, oral, anal, footjob, bondage, creampie, WEB-DL rip] [jap] [576p]

Ответить на тему
Статистика раздачи
Размер:  149 MB   |    Зарегистрирован:  10 дней   |    Скачан:  2 раза

Полного источника не было: 4 дня

 
 
 
Автор Сообщение

erzsebet ®

Стаж: 17 лет

Сообщений: 42449

Откуда: erzsebet.org

Создавать темы 10-Июл-2019 20:30  |  Сменить автора

[Цитировать] 


Kasshoku orient bijo to shuujuu seikou - Motion anime
褐色オリエント美女と主従性交~魔性のワガママ搾精契約~ The Motion Anime
Selfish sakuseikeiyaku - The motion anime of brown orient beautiful woman and master and servant sex - evil spirit

Год выпуска: 2019
Жанр: demon, kenomomimi, big breast, paizuri, oral, anal, footjob, bondage, creampie
Серии: ep. 1 of 1
Продолжительность: 33mn
Цензура: Есть во всех файлах
Озвучка: Японская оригинальная
Субтитры: Японские встроенные неотключаемые (хардсаб)
Студия: Apataito / Appetite / アパタイト, survive
Описание: PC game "selfish sakuseikeiyaku ... of brown orient beautiful woman and master and servant sex - evil spirit" motion Anime! Character Designer "Ohara" where is familiar in brown Married Woman Series X scenario writer "Sakamoto star day!" "Days of sakusei where I can serve which is Sex for the brown beautiful woman of the Inu ear" The main character who has freed an Inu ear brown beautiful woman sealed an antique. While a pace is completely held by an overbearing Inu ear brown beautiful woman, describe days serving it. While the main character thinks it to be "gununu" in an overbearing manner, Be excited just carelessly at an opportunity to be able to do the thing that it is Sex with an exceptional beautiful woman and be drained. Days of sakusei where I can serve which is Sex for a brown beautiful woman? Unreasonable demand (?) Manner (?) that ya is haughty Let's enjoy an erotic act only for a reward of the So while enduring o!
◇Outline
Extremely normal Working adult `Takashi Sagata' One day from father flying about Overseas in archeologists Because "I found a good thing in an antique shop, be presents for you" to, baggage arrive. "Do it, and do it……However, be Nan, this……Well, generally there is expectation……" The Garakuta product which arrived (?) A pyramid-shaped ornament came out of the bottom when I took out o. Just hand becomes negligent, and let it slide carelessly when I think that you start it in net auction with a quite good structure. "e, e, ee? Be Nan!" The brain of the ornament is against the time that I cut down on with paka, and white smoke goes up it in the sky. It begins to blow at a stretch; and in no time the room……And when open eyes fearfully……. A woman extends over the floor on me who turned over on my back. In Non-Japanese beautiful women of the considerably large brown skin……Be already incomprehensible. With "be not dreams Ryuji. warawaha, rera……Should call me rera. fufufu is not enough clear, but look very greedy. Did you solve warawano seal?" Totally ignored the confusion of such me, and mysterious woman, rera brought a face close to me. "warawaha, be hungry denou for a long time without eating. Let's give you honor to become the bait. The meal after a long absence sucks fufu exhaustively……" While say so, and rera licks its lips; between my crotches…….
◇Heroine
Name: rera (rera)
A voice actor: Four no shrine Hina (do a chisel and Hina)
Size: T184 / B101 / W60 / H103
Setting: Something like apparition of a living person sealed an antique. With the haughty, arrogant character of the thing which is a dignified demeanor, Seem that the others kneel to oneself and think that it is natural. Liked sperm of Takashi, and decided to make one's `aruji' (manservant). Like a modern meal particularly junk food.
◇Main character
Name: Takashi Sagata (sakataryuji)
Setting: The average man whom there is anywhere without the particular characteristic. However, the sexual desire is more greatly than average strong, too, and the penis has thick sperm, and there is much quantity of ejaculation, too. Cherry Boy.
◆Character Designer : Ohara (ohara)
◆Story: Sakamoto star day (sakamotoseinichi)
◆Voice actor : rera (rera) / four no shrine Hina (Shinomiya Hina)
◆Movie production: Survive
https://www.dmm.co.jp/en/dc/doujin/-/detail/=/cid=d_153056/
https://www.dlsite.com/pro/work/=/product_id/VJ012269.html
Качество видео: WEB-DL rip
Разрешение видео: 576p
Формат видео: MP4
Видео: 1024-576, 16-9, 29.97 fps, AVC, 499 kbps
Аудио: jpn, AAC, Stereo, 44.1 KHz, 120 kbps

Скринлист

MediaInfo

General
Complete name : Kasshoku_orient_bijo_to_shuujuu_seikou_-_Motion_anime_[d_153056][6BAF8C00].mp4
Format : MPEG-4
Format profile : Base Media
Codec ID : isom (isom/avc1)
File size : 148 MiB
Duration : 33 min 14 s
Overall bit rate mode : Variable
Overall bit rate : 623 kb/s
Encoded date : UTC 2019-06-15 23:48:05
Tagged date : UTC 2019-06-15 23:48:05
Video
ID : 1
Format : AVC
Format/Info : Advanced Video Codec
Format profile : Main@L4
Format settings : CABAC / 8 Ref Frames
Format settings, CABAC : Yes
Format settings, RefFrames : 8 frames
Codec ID : avc1
Codec ID/Info : Advanced Video Coding
Duration : 33 min 13 s
Bit rate : 499 kb/s
Maximum bit rate : 1 851 kb/s
Width : 1 024 pixels
Height : 576 pixels
Display aspect ratio : 16:9
Frame rate mode : Constant
Frame rate : 29.970 (30000/1001) FPS
Color space : YUV
Chroma subsampling : 4:2:0
Bit depth : 8 bits
Scan type : Progressive
Bits/(Pixel*Frame) : 0.028
Stream size : 119 MiB (80%)
Writing library : x264 core 146 r2538 121396c
Encoding settings : cabac=1 / ref=8 / deblock=1:1:0 / analyse=0x1:0x111 / me=hex / subme=7 / psy=1 / psy_rd=0.40:0.00 / mixed_ref=1 / me_range=16 / chroma_me=1 / trellis=1 / 8x8dct=0 / cqm=0 / deadzone=21,11 / fast_pskip=1 / chroma_qp_offset=-2 / threads=12 / lookahead_threads=2 / sliced_threads=0 / nr=0 / decimate=1 / interlaced=0 / bluray_compat=0 / constrained_intra=0 / bframes=6 / b_pyramid=2 / b_adapt=1 / b_bias=0 / direct=1 / weightb=1 / open_gop=0 / weightp=2 / keyint=285 / keyint_min=27 / scenecut=40 / intra_refresh=0 / rc_lookahead=40 / rc=2pass / mbtree=1 / bitrate=499 / ratetol=1.0 / qcomp=0.60 / qpmin=10 / qpmax=51 / qpstep=4 / cplxblur=20.0 / qblur=0.5 / vbv_maxrate=20000 / vbv_bufsize=25000 / nal_hrd=none / filler=0 / ip_ratio=1.40 / aq=2:0.60
Encoded date : UTC 2019-06-15 23:48:05
Tagged date : UTC 2019-06-15 23:48:08
Codec configuration box : avcC
Audio
ID : 2
Format : AAC LC
Format/Info : Advanced Audio Codec Low Complexity
Codec ID : mp4a-40-2
Duration : 33 min 14 s
Bit rate mode : Variable
Bit rate : 120 kb/s
Maximum bit rate : 148 kb/s
Channel(s) : 2 channels
Channel layout : L R
Sampling rate : 44.1 kHz
Frame rate : 43.066 FPS (1024 SPF)
Compression mode : Lossy
Stream size : 28.5 MiB (19%)
Encoded date : UTC 2019-06-15 23:17:59
Tagged date : UTC 2019-06-15 23:48:08
[erzsebet.org].t2503517.torrent 
Торрент: Зарегистрирован [ 2019-07-10 20:30 ]

Скачать .torrent

Скачать

12 KB

Статус: проверено
Скачан: 2 раз
Размер: 149 MB
Поблагодарили: 0  Спасибо
terms.php
[Профиль]  [ЛС] 
Показать сообщения:    
Ответить на тему

Текущее время: 21-Июл 14:42

Часовой пояс: UTC + 3



Вы не можете начинать темы
Вы не можете отвечать на сообщения
Вы не можете редактировать свои сообщения
Вы не можете удалять свои сообщения
Вы не можете голосовать в опросах
Вы не можете прикреплять файлы к сообщениям
Вы можете скачивать файлы