Шаолиньский богомол / Tang lang / Shaolin Mantis (Лю Цзя Лян / Liu Chia Liang) [1978, Гонконг, Боевые искусства, WEBRip] AVO (Сергей Кузнецов)

Ответить на тему
Статистика раздачи
Размер:  744 MB   |    Зарегистрирован:  10 дней   |    Скачан:  0 раз

Полного источника не было: 9 дней

 
 
 
Автор Сообщение

erzsebet ®

Стаж: 17 лет

Сообщений: 42452

Откуда: erzsebet.org

Создавать темы 11-Июл-2019 07:41  |  Сменить автора

[Цитировать] 

Шаолиньский богомол / Shaolin Mantis / Tang lang
Страна: Гонконг
Жанр: боевые искусства
Год выпуска: 1978
Продолжительность: 01:36:13
Перевод: Авторский (одноголосый закадровый) [Кузнецов]
Оригинальная аудиодорожка: нет
Субтитры: нет
Режиссер: Лю Цзя Лян / Liu Chia Liang
В ролях: Дэвид Чианг, Лили Лай, Чиа Юнг Лью, Сесилия Вонг, Норман Чу, Джон Чунг, Ва Чун, Миао Чинг, Пинг Ха, Кеи Чон Хо, Хоу Хсиао, Хой Сан Ли, Кинг Чу Ли, Ке Минг Лин, Цзя-Хуэй Лю, Хунг Луи, Чиа Чун Лун, Уилсон Тонг
Описание: Вэй Фан (Дэвид Цзян) - сын придворного учёного, прекрасно владеет не только кисточкой, но и кулаками. Император посылает его в клан Тьен, с заданием раздобыть доказательства причастности клана к бунтовщикам, с условием, что если он не вернётся через год, вся его семья погибнет. Вэй Фану удаётся проникнуть в клан под видом учителя внучки предводителя клана (Лау Ка Вин). Вскоре "учителя" заподозрили в шпионаже и решили избавиться от него. Но внучка Джи Джи поуши влюбилась в учителя и дело закончилось свадьбой. Прошёл почти год, Вэй Фану удалось добыть доказательства, но выбраться не так-то и просто, так как все члены клана - прекрасные бойцы...
Качество: WEBRip
Контейнер: AVI
Видео: 688x288 (2.39:1), 25 fps, XviD build 50 ~943 kbps avg, 0.19 bit/pixel
Аудио: 48 kHz, MPEG Layer 3, 2 ch, ~128.00 kbps avg

MI

Общее
Полное имя : D:\Мои рипы\Шаолиньский_богомол_WEB-DLRip_Некул.avi
Формат : AVI
Формат/Информация : Audio Video Interleave
Размер файла : 744 Мбайт
Продолжительность : 1 ч. 36 м.
Общий поток : 1081 Кбит/сек
Программа кодирования : VirtualDubMod 1.5.10.3 | www.virtualdub-fr.org || (build 2550/release)
Библиотека кодирования : VirtualDubMod build 2550/release
Видео
Идентификатор : 0
Формат : MPEG-4 Visual
Профиль формата : Advanced Simple@L5
Параметр BVOP формата : 2
Параметр QPel формата : Нет
Параметр GMC формата : Без точки перехода
Параметр матрицы формата : Default (MPEG)
Идентификатор кодека : XVID
Идентификатор кодека/Подсказка : XviD
Продолжительность : 1 ч. 36 м.
Битрейт : 943 Кбит/сек
Ширина : 688 пикселей
Высота : 288 пикселей
Соотношение сторон : 2,40:1
Частота кадров : 25,000 кадров/сек
Цветовое пространство : YUV
Субдискретизация насыщенности : 4:2:0
Битовая глубина : 8 бит
Тип развёртки : Прогрессивная
Метод сжатия : С потерями
Бит/(Пиксели*Кадры) : 0.190
Размер потока : 649 Мбайт (87%)
Библиотека кодирования : XviD 1.2.1 (UTC 2008-12-04)
Аудио
Идентификатор : 1
Формат : MPEG Audio
Версия формата : Version 1
Профиль формата : Layer 3
Идентификатор кодека : 55
Идентификатор кодека/Подсказка : MP3
Продолжительность : 1 ч. 36 м.
Вид битрейта : Постоянный
Битрейт : 128 Кбит/сек
Каналы : 2 канала
Частота : 48,0 КГц
Метод сжатия : С потерями
Размер потока : 88,1 Мбайт (12%)
Выравнивание : Соединение по промежуткам
Продолжительность промежутка : 40 мс. (1,00 видеокадр)
Время предзагрузки промежутка : 504 мс.
Библиотека кодирования : LAME3.99r
Настройки программы : -m s -V 4 -q 2 -lowpass 17 -b 128

Скриншоты


[erzsebet.org].t2503612.torrent 
Торрент: Зарегистрирован [ 2019-07-11 07:41 ]

Скачать .torrent

Скачать

15 KB

Статус: проверено
Скачан: 0 раз
Размер: 744 MB
Поблагодарили: 0  Спасибо
terms.php
Связанные раздачи
Добавлен Темы Размер S / L Ссылка
11-Июл-19 07:36 Шаолиньский богомол / Tang lang / Shaolin Mantis (Лю Цзя Лян / Liu Chia Liang) [1978, Гонконг, Боевые искусства, WEBRip 720p] AVO (Сергей Кузнецов) + Sub Eng + Eng + Original ChiОтв. 0 2,89 GB | Скачать .torrent
11-Июл-19 04:09 Шаолиньский богомол / Tang lang / Shaolin Mantis (Лю Цзя Лян / Liu Chia Liang) [1978, Гонконг, Боевые искусства, WEBRip 1080p] AVO (Сергей Кузнецов) + Sub Eng + Eng + Original ChiОтв. 0 3,3 GB | Скачать .torrent
09-Июл-19 05:41 Шаолиньский богомол / Tang lang / Shaolin Mantis (Лю Цзя Лян / Liu Chia Liang) [1978, Гонконг, Боевые искусства, WEBRip 1080p] AVO (Сергей Кузнецов) + Chi + Eng + Sub ZhoОтв. 1 3,25 GB | Скачать .torrent
[Профиль]  [ЛС] 
Показать сообщения:    
Ответить на тему

Текущее время: 21-Июл 14:47

Часовой пояс: UTC + 3



Вы не можете начинать темы
Вы не можете отвечать на сообщения
Вы не можете редактировать свои сообщения
Вы не можете удалять свои сообщения
Вы не можете голосовать в опросах
Вы не можете прикреплять файлы к сообщениям
Вы можете скачивать файлы