Солдат Джейн / G.I. Jane (Ридли Скотт / Ridley Scott) [1997, США, Великобритания, боевик, драма, военный, BDRemux 1080p] MVO + AVO + Sub Rus + Original Eng

Ответить на тему
Статистика раздачи
Размер:  17,63 GB   |    Зарегистрирован:  10 дней   |    Скачан:  0 раз

Полного источника не было: Никогда

 
 
 
Автор Сообщение

erzsebet ®

Стаж: 17 лет

Сообщений: 42449

Откуда: erzsebet.org

Создавать темы 11-Июл-2019 08:09  |  Сменить автора

[Цитировать] 

Солдат Джейн / G.I. Jane
Страна: США, Великобритания
Жанр: боевик, драма, военный
Год выпуска: 1997
Продолжительность: 02:05:14
Перевод: Профессиональный (многоголосый, закадровый)
Перевод 2: Авторский (одноголосый, закадровый)
Субтитры: русские
Оригинальная аудиодорожка: английская
Режиссер: Ридли Скотт / Ridley Scott
В ролях: Деми Мур, Вигго Мортенсен, Энн Бэнкрофт, Джейсон Бех, Дэниэл Фон Барген, Джон Майкл Хиггинс, Кевин Гейдж, Дэвид Уоршофски, Давид Вадим, Моррис Честнат
Описание: Лейтенант Джордан О`Нил становится первой женщиной, направленной для прохождения элитной программы в центре подготовки «Каталано» во Флориде.
Лучшие представители спецподразделений армии США отбираются сюда. 60 процентов из них не выдерживают в этом аду. Школа выживания и уничтожения… Ты должна выстоять, О`Нил!
Тип релиза: BDRemux
Контейнер: MKV
Видео: MPEG-4 (1920x1080) AVC, 23,976 кадр/сек, 17688 Кбит/сек
Аудио: Russian (Dolby AC-3, 6 ch) 448 Кбит/сек, 48.0 КГц
Аудио 2: Russian (Dolby AC-3, 6 ch) 384 Кбит/сек, 48.0 КГц, А. Гаврилов
Аудио 3: English (FLAC, 6 ch) 48.0 КГц

MediaInfo

Общее
Полное имя : G.I. Jane.1997.Blu-ray.1080p.AVC.Rus.Eng.mkv
Формат : Matroska
Версия формата : Version 1
Размер файла : 17,6 Гбайт
Продолжительность : 2 ч. 5 м.
Режим общего битрейта : Переменный
Общий поток : 20,1 Мбит/сек
Дата кодирования : UTC 2008-07-20 20:21:15
Программа кодирования : mkvmerge v2.2.0 ('Turn It On Again') built on Apr 14 2008 23:34:53
Библиотека кодирования : libebml v0.7.7 + libmatroska v0.8.1
Видео
Идентификатор : 1
Формат : AVC
Формат/Информация : Advanced Video Codec
Профиль формата : High@L4.1
Настройки формата : CABAC / 3 Ref Frames
Параметр CABAC формата : Да
Параметр RefFrames формата : 3 кадра
Режим смешивания : Container profile=@0.0
Идентификатор кодека : V_MPEG4/ISO/AVC
Продолжительность : 2 ч. 5 м.
Вид битрейта : Переменный
Максимальный битрейт : 40,0 Мбит/сек
Ширина : 1920 пикселей
Высота : 1080 пикселей
Соотношение сторон : 16:9
Режим частоты кадров : Постоянный
Частота кадров : 23,976 (24000/1001) кадра/сек
Стандарт вещания : NTSC
Цветовое пространство : YUV
Субдискретизация насыщенности : 4:2:0
Битовая глубина : 8 бит
Тип развёртки : Прогрессивная
Язык : English
Default : Да
Forced : Нет
Цветовой диапазон : Limited
Основные цвета : BT.709
Характеристики трансфера : BT.709
Коэффициенты матрицы : BT.709
Аудио #1
Идентификатор : 2
Формат : AC-3
Формат/Информация : Audio Coding 3
Идентификатор кодека : A_AC3
Продолжительность : 2 ч. 5 м.
Вид битрейта : Постоянный
Битрейт : 448 Кбит/сек
Каналы : 6 каналов
Расположение каналов : Front: L C R, Side: L R, LFE
Частота : 48,0 КГц
Частота кадров : 31,250 кадров/сек (1536 SPF)
Битовая глубина : 16 бит
Метод сжатия : С потерями
Размер потока : 402 Мбайт (2%)
Язык : Russian
ServiceKind/String : Complete Main
Default : Да
Forced : Нет
Аудио #2
Идентификатор : 3
Формат : AC-3
Формат/Информация : Audio Coding 3
Идентификатор кодека : A_AC3
Продолжительность : 2 ч. 5 м.
Вид битрейта : Постоянный
Битрейт : 384 Кбит/сек
Каналы : 6 каналов
Расположение каналов : Front: L C R, Side: L R, LFE
Частота : 48,0 КГц
Частота кадров : 31,250 кадров/сек (1536 SPF)
Битовая глубина : 16 бит
Метод сжатия : С потерями
Размер потока : 344 Мбайт (2%)
Заголовок : Гаврилов
Язык : Russian
ServiceKind/String : Complete Main
Default : Нет
Forced : Нет
Аудио #3
Идентификатор : 4
Формат : FLAC
Формат/Информация : Free Lossless Audio Codec
Идентификатор кодека : A_FLAC
Продолжительность : 2 ч. 5 м.
Вид битрейта : Переменный
Каналы : 6 каналов
Расположение каналов : Front: L C R, Side: L R, LFE
Частота : 48,0 КГц
Битовая глубина : 16 бит
Библиотека кодирования : libFLAC 1.2.0 (UTC 2007-07-15)
Язык : English
Default : Нет
Forced : Нет
Текст #1
Идентификатор : 5
Формат : UTF-8
Идентификатор кодека : S_TEXT/UTF8
Идентификатор кодека/Информация : UTF-8 Plain Text
Default : Да
Forced : Нет
Текст #2
Идентификатор : 6
Формат : UTF-8
Идентификатор кодека : S_TEXT/UTF8
Идентификатор кодека/Информация : UTF-8 Plain Text
Язык : Russian
Default : Нет
Forced : Нет
Меню
00:00:00.000 : en:00:00:00.000
00:00:27.194 : en:00:00:27.194
00:09:36.951 : en:00:09:36.951
00:14:00.882 : en:00:14:00.882
00:19:10.816 : en:00:19:10.816
00:31:52.452 : en:00:31:52.452
00:34:55.176 : en:00:34:55.176
00:39:41.462 : en:00:39:41.462
00:43:24.268 : en:00:43:24.268
00:46:11.519 : en:00:46:11.519
00:48:10.221 : en:00:48:10.221
00:54:00.737 : en:00:54:00.737
01:01:13.503 : en:01:01:13.503
01:05:39.519 : en:01:05:39.519
01:15:26.605 : en:01:15:26.605
01:22:09.925 : en:01:22:09.925
01:23:49.358 : en:01:23:49.358
01:27:36.168 : en:01:27:36.168
01:33:39.572 : en:01:33:39.572
01:39:17.702 : en:01:39:17.702
01:44:28.429 : en:01:44:28.429
01:52:05.093 : en:01:52:05.093
01:58:09.207 : en:01:58:09.207

Скриншоты

[erzsebet.org].t2503615.torrent 
Торрент: Зарегистрирован [ 2019-07-11 08:09 ]

Скачать .torrent

Скачать

45 KB

Статус: проверено
Скачан: 0 раз
Размер: 17,63 GB
Поблагодарили: 0  Спасибо
terms.php
Связанные раздачи
Добавлен Темы Размер S / L Ссылка
11-Июл-19 08:06 Солдат Джейн / G.I. Jane (Ридли Скотт / Ridley Scott) [1997, США, боевик, драма, военный, BDRip] DVO (West Video) + Original (Eng) + Sub (Rus, Eng)Отв. 0 1,46 GB | Скачать .torrent
11-Июл-19 08:03 Солдат Джейн / G.I. Jane (Ридли Скотт / Ridley Scott) [1997, США, Великобритания, боевик, драма, военный, BDRip 720p] 2х MVO (West Multimedia, Paradis Digital) + 2х AVO (Гаврилов, Живов) + Sub Rus, Eng + Original Eng + UkrОтв. 0 7,91 GB | Скачать .torrent
[Профиль]  [ЛС] 
Показать сообщения:    
Ответить на тему

Текущее время: 21-Июл 14:42

Часовой пояс: UTC + 3



Вы не можете начинать темы
Вы не можете отвечать на сообщения
Вы не можете редактировать свои сообщения
Вы не можете удалять свои сообщения
Вы не можете голосовать в опросах
Вы не можете прикреплять файлы к сообщениям
Вы можете скачивать файлы