Солдат киборг / Cyborg Soldier (Джон Стэд / John Stead) [2008, фантастика, боевик, BDRip 720p] DVO + Original

Ответить на тему
Статистика раздачи
Размер:  4,65 GB   |    Зарегистрирован:  10 дней   |    Скачан:  0 раз

Полного источника не было: 9 дней

 
 
 
Автор Сообщение

erzsebet ®

Стаж: 17 лет

Сообщений: 42449

Откуда: erzsebet.org

Создавать темы 11-Июл-2019 12:49  |  Сменить автора

[Цитировать] 

Солдат киборг / Cyborg Soldier
Год выпуска: 2008
Страна: США, Канада
Жанр: фантастика, боевик
Продолжительность: 01:28:24
Перевод: Любительский (двухголосый)
Русские субтитры: нет
Режиссер: Джон Стэд / John Stead
В ролях: Рич Франклин, Тиффани Тайсен, Брюс Гринвуд, Аарон Абрамс, Венди Андерсон, Джим Аннан, Патрик Чилверс, Брайан Фрэнк, Кира Харпер, Эддисон Холли, Стив Люческу...
Описание: Киборг сбегает с объекта, где он был создан. При помощи местного шерифа он пытается уйти от своих опасных создателей-ученых.
Действие фильма происходит на военной базе, расположенной на дальней американской границе. Шериф (Тиффани Тайсен), захватывает искусственно созданного супер-солдата (Рич Франклин). Ученый-создатель киборга (Брюс Гринвуд) пытается их поймать.Фильм снят по сценарию Джона Флока и Кристофера В. Сметса.
5.444/10 (9)
4.1/10 (523 votes)
Качество: BDRip 720p
Формат: MKV
Видео кодек: H.264
Аудио кодек: AC3, DTS
Видео: 1280x720 (16:9), 23.976 fps, H.264 ~5566 kbps avg, 0.252 bit/pixel
Аудио:
Русский, 48 kHz, Dolby AC3, 6 ch, 448.00 kbps Constant,
Английский, 48 kHz, DTS, 6 ch, 1510.00 kbps Constant

MediaInfo

General
Complete name : D:\RAB\1_P\Киборг\Cyborg.Soldier.2008\Soldat.kiborg.2008.L2.BDRip.720p.mkv
Format : Matroska
File size : 4.65 GiB
Duration : 1h 28mn
Overall bit rate : 7 525 Kbps
Movie name : avproh
Encoded date : UTC 2010-07-01 19:28:06
Writing application : mkvmerge v4.0.0 ('The Stars were mine') сборка от Jun 6 2010 16:18:42
Writing library : libebml v1.0.0 + libmatroska v1.0.0
Video
ID : 1
Format : AVC
Format/Info : Advanced Video Codec
Format profile : High@L4.1
Format settings, CABAC : Yes
Format settings, ReFrames : 5 frames
Muxing mode : Container profile=Unknown@4.1
Codec ID : V_MPEG4/ISO/AVC
Duration : 1h 28mn
Bit rate : 5 566 Kbps
Width : 1 280 pixels
Height : 720 pixels
Display aspect ratio : 16:9
Frame rate : 23.976 fps
Color space : YUV
Chroma subsampling : 4:2:0
Bit depth : 8 bits
Scan type : Progressive
Bits/(Pixel*Frame) : 0.252
Stream size : 3.35 GiB (72%)
Writing library : x264 core 100 r1659 57b2e56
Encoding settings : cabac=1 / ref=5 / deblock=1:0:0 / analyse=0x3:0x133 / me=umh / subme=7 / psy=1 / psy_rd=1.00:0.00 / mixed_ref=1 / me_range=16 / chroma_me=1 / trellis=1 / 8x8dct=1 / cqm=0 / deadzone=21,11 / fast_pskip=0 / chroma_qp_offset=-2 / threads=12 / sliced_threads=0 / nr=0 / decimate=1 / interlaced=0 / constrained_intra=0 / bframes=3 / b_pyramid=2 / b_adapt=1 / b_bias=0 / direct=1 / weightb=1 / open_gop=0 / weightp=2 / keyint=250 / keyint_min=25 / scenecut=40 / intra_refresh=0 / rc_lookahead=40 / rc=2pass / mbtree=1 / bitrate=5566 / ratetol=1.0 / qcomp=0.60 / qpmin=10 / qpmax=51 / qpstep=4 / cplxblur=20.0 / qblur=0.5 / ip_ratio=1.40 / aq=1:1.00
Audio #1
ID : 2
Format : AC-3
Format/Info : Audio Coding 3
Mode extension : CM (complete main)
Codec ID : A_AC3
Duration : 1h 28mn
Bit rate mode : Constant
Bit rate : 448 Kbps
Channel(s) : 6 channels
Channel positions : Front: L C R, Side: L R, LFE
Sampling rate : 48.0 KHz
Stream size : 283 MiB (6%)
Title : L2 AC3 5.1 448 kbps
Language : Russian
Audio #2
ID : 3
Format : DTS
Format/Info : Digital Theater Systems
Codec ID : A_DTS
Duration : 1h 28mn
Bit rate mode : Constant
Bit rate : 1 510 Kbps
Channel(s) : 6 channels
Channel positions : Front: L C R, Side: L R, LFE
Sampling rate : 48.0 KHz
Bit depth : 24 bits
Stream size : 955 MiB (20%)
Title : DTS 5.1 1510 kbps

Скринлист

[erzsebet.org].t2503622.torrent 
Торрент: Зарегистрирован [ 2019-07-11 12:49 ]

Скачать .torrent

Скачать

24 KB

Статус: проверено
Скачан: 0 раз
Размер: 4,65 GB
Поблагодарили: 0  Спасибо
terms.php
[Профиль]  [ЛС] 
Показать сообщения:    
Ответить на тему

Текущее время: 21-Июл 14:43

Часовой пояс: UTC + 3



Вы не можете начинать темы
Вы не можете отвечать на сообщения
Вы не можете редактировать свои сообщения
Вы не можете удалять свои сообщения
Вы не можете голосовать в опросах
Вы не можете прикреплять файлы к сообщениям
Вы можете скачивать файлы