4 Filles de leur Pere / Four Fucking Daughters / 4 папины дочки (Ralf Scott / Marc Dorcel) [1998 г., Story, Anal, Lesbian, Hardcore, DVDRemux] Dalila, Dolly Golden, Fovéa, Karen Lancaume, Kim, Maya France, Rita Cardinale

Ответить на тему
Статистика раздачи
Размер:  2,19 GB   |    Зарегистрирован:  9 дней   |    Скачан:  1 раз

Полного источника не было: 7 дней

 
 
 
Автор Сообщение

erzsebet ®

Стаж: 17 лет

Сообщений: 42449

Откуда: erzsebet.org

Создавать темы 12-Июл-2019 01:23  |  Сменить автора

[Цитировать] 

-Оригинальное название: 4 Filles de leur Pere / Four Fucking Daughters
Название: 4 папины дочки
Год выхода: 1998
Жанр: Story, Anal, Lesbian, Hardcore
Режиссер: Ralf Scott
Выпущено: Франция / Marc Dorcel
Продолжительность: 1h 33mn-В ролях:
Female cast: Dalila, Dolly Golden, Fovéa, Karen Lancaume, Kim, Maya France, Rita Cardinale
Male cast: Alban Ceray, Bruno SX, Claudio, Frank Gun, Giancarlo Bini [NonSex], Kevin Long, Philippe Dean, Randy West-Описание:
Call-girl de grand standing, Maria a toujours cache la source de ses revenus a ses trois jeunes surs sur qui elle veille avec une sollicitude quasi maternelle et qu’elle comble de cadeaux au retour de chacune de ses “missions”. Mais elle va bientot constater qu’en depit des preceptes moraux qu’elle leur prodigue, le feu couve entre les cuisses des trois jeunes filles, lesquelles ne l’ont pas attendue pour s’adonner aux plaisirs du sexe les plus extremes en compagnie des etalons du voisinage. Il est vrai qu’elles ont de qui tenir ! C’est ce que decouvre Maria qui surprend leur propre pere en train de se livrer en cachette a des jeux interdits avec la complicite de vicieuses jeunes femmes peu farouches.
C’est alors que, pour sa plus grande confusion, un riche proprietaire, Giovani, lui demande de l’epouser..

Элитная содержанка Мария всегда скрывала источники своего дохода от трех своих младших сестер, и всегда с почти материнской заботой одаривала их, возвращаясь с очередного своего "приключения". Но она в скором времени обнаруживает что, несмотря на все её, проповедуемые сестрам, моральные заповеди, их блудливый нрав не покорить, а жаркое тление огня все ярче загорается между бедрами трех девушек. Они не прочь раскрыть для себя все радости секса с соседскими "жеребчиками". В попытке помешать развращению сестер, она старается принять удар на себя, если бы еще папаша не мешал...
Каково же было её удивление, когда богатый домовладелец Джованни, попросил её руки...
-Формат: MKV
Видео: MPEG2 Video 720x480 (4:3) 29.97fps 3176 Kbps
Аудио: Dolby AC3 48000Hz stereo 192kbps-

Тех данные

General
Unique ID : 82516929016755992667925733655364114280 (0x3E142EB51F9AECF8250C79A935261768)
Complete name : D:\Downloads\4 Filles de leur Pere [erzsebet.org] DVD.mkv
Format : Matroska
Format version : Version 4
File size : 2.19 GiB
Duration : 1 h 33 min
Overall bit rate mode : Variable
Overall bit rate : 3 371 kb/s
Movie name : 4 Filles de leur Pere [erzsebet.org] DVD
Encoded date : UTC 2019-07-11 21:12:08
Writing application : mkvmerge v35.0.0 ('All The Love In The World') 64-bit
Writing library : libebml v1.3.9 + libmatroska v1.5.2
Video
ID : 1
Format : MPEG Video
Format version : Version 2
Format profile : Main@Main
Format settings : BVOP
Format settings, BVOP : Yes
Format settings, Matrix : Default
Format settings, GOP : Variable
Codec ID : V_MPEG2
Codec ID/Info : MPEG 1 or 2 Video
Duration : 1 h 33 min
Bit rate mode : Variable
Bit rate : 3 176 kb/s
Maximum bit rate : 9 000 kb/s
Width : 720 pixels
Height : 480 pixels
Display aspect ratio : 4:3
Frame rate mode : Constant
Frame rate : 29.970 (30000/1001) FPS
Standard : NTSC
Color space : YUV
Chroma subsampling : 4:2:0
Bit depth : 8 bits
Scan type : Progressive
Compression mode : Lossy
Bits/(Pixel*Frame) : 0.307
Time code of first frame : 00:00:00:00
Time code source : Group of pictures header
GOP, Open/Closed : Open
Stream size : 2.06 GiB (94%)
Language : English
Default : No
Forced : No
Audio
ID : 2
Format : AC-3
Format/Info : Audio Coding 3
Commercial name : Dolby Digital
Codec ID : A_AC3
Duration : 1 h 32 min
Bit rate mode : Constant
Bit rate : 192 kb/s
Channel(s) : 2 channels
Channel layout : L R
Sampling rate : 48.0 kHz
Frame rate : 31.250 FPS (1536 SPF)
Bit depth : 16 bits
Compression mode : Lossy
Stream size : 128 MiB (6%)
Title : Stereo
Language : English
Service kind : Complete Main
Default : Yes
Forced : No
Menu
00:00:00.000 : en:Chapter 01
00:05:00.199 : en:Chapter 02
00:10:00.399 : en:Chapter 03
00:15:00.299 : en:Chapter 04
00:20:00.199 : en:Chapter 05
00:25:00.098 : en:Chapter 06
00:30:00.398 : en:Chapter 07
00:35:00.098 : en:Chapter 08
00:40:00.398 : en:Chapter 09
00:45:00.497 : en:Chapter 10
00:50:00.397 : en:Chapter 11
00:55:00.297 : en:Chapter 12
01:00:00.096 : en:Chapter 13
01:05:00.396 : en:Chapter 14
01:10:00.196 : en:Chapter 15
01:15:00.095 : en:Chapter 16
01:20:00.195 : en:Chapter 17
01:25:00.395 : en:Chapter 18
01:30:00.395 : en:Chapter 19

Скринлист

[erzsebet.org].t2503645.torrent 
Торрент: Зарегистрирован [ 2019-07-12 01:23 ]

Скачать .torrent

Скачать

3 KB

Статус: проверено
Скачан: 1 раз
Размер: 2,19 GB
Поблагодарили: 0  Спасибо
terms.php
Связанные раздачи
Добавлен Темы Размер S / L Ссылка
11-Мар-19 23:06 4 Filles de leur Pere / Four Fucking Daughters / 4 папины дочки (Ralf Scott / Marc Dorcel) [1998 г., Story, Anal, Lesbian, Hardcore, DVDRip]Отв. 0 1,56 GB 1 | 0 Скачать .torrent
19-Сен-18 06:03 4 Filles de leur Pere / Four Fucking Daughters / 4 папины дочки (Ralf Scott / Marc Dorcel) [1998 г., Story, Anal, Lesbian, Hardcore, DVD5]Отв. 0 2,25 GB | Скачать .torrent
[Профиль]  [ЛС] 
Показать сообщения:    
Ответить на тему

Текущее время: 21-Июл 14:43

Часовой пояс: UTC + 3



Вы не можете начинать темы
Вы не можете отвечать на сообщения
Вы не можете редактировать свои сообщения
Вы не можете удалять свои сообщения
Вы не можете голосовать в опросах
Вы не можете прикреплять файлы к сообщениям
Вы можете скачивать файлы