Твин Пикс / Twin Peaks [S01-02] (1990-1991) BDRemux 1080p | P, A

Ответить на тему
Статистика раздачи
Размер:  322,77 GB   |    Зарегистрирован:  8 месяцев 13 дней   |    Скачан:  0 раз

Полного источника не было: Никогда

 
 
 
Автор Сообщение

erzsebet ®

Стаж: 17 лет

Сообщений: 73897

Создавать темы 05-Дек-2018 17:14  |  Сменить автора

[Цитировать] 

Информация о фильме
Название: Твин Пикс
Оригинальное название: Twin Peaks
Год выхода: 1990-1991
Жанр: Триллер, драма, криминал, детектив
Режиссер: Дэвид Линч, Лесли Линка Глаттер, Калеб Дешанель
В ролях: Кайл МакЛахлан, Майкл Онткин, Шерил Ли, Лара Флинн Бойл, Шерилин Фенн, Рэй Уайз, Мигель Феррер, Дэвид Линч, Билли Зейн, Хезер Грэм, Мэдчен Эмик, Дэна Эшбрук, Ричард Беймер, Уоррен Фрост, Пегги Липтон, Джеймс Маршалл, Эверет МакГилл, Джек Нэнс, Джоан Чен, Кимми Робертсон, Майкл Хорс, Пайпер Лори, Гарри Гоаз, Эрик ДаРе, Уэнди Роби, Расс Тэмблин, Дон С. Дэвис, Крис Малки, Гаррисон Хершбергер, Грэйс Забриски, Катрин Э. Колсон, Йен Бьюкэнэн, Мэри Джо Дешанель, Фрэнк Силва, Кеннет Уэлш, Аль Штробель, Дэвид Патрик Келли
О фильме:
История начинается с известия о находке обнаженного тела Лоры Палмер, «завернутого в полиэтилен» и выброшенного волнами на берег озера. В ходе расследования перед внимательными взглядами агента Купера, шерифа Трумана и его помощников проходят разные жители Твин Пикс. Постепенно зритель открывает для себя темную и страшную сторону жизни обитателей на первый взгляд тихого и мирного городка.
Кинопоиск: 8.5
IMDB: 8.9
Страна: США
Продолжительность: 2 серии по ~01:30:00 и 28 по ~00:45:00
Перевод: Многоголосый закадровый, профессиональный (ОРТ); многоголосый закадровый, профессиональный (Sci-Fi); одноголосый закадровый (Савченко); одноголосый закадровый (Сербин)
Файл
Кодек: MPEG-4 AVC/H.264
Качество: BDRemux
Видео: 1920х1080 (16:9) ~27000 Кбит/с
Звук:
Аудио #1 (Rus): AC-3, 192 Кбит/сек, 2 канала - многоголосый закадровый (ОРТ)
Аудио #2 (Rus): AC-3, 192 Кбит/сек, 2 канала - многоголосый закадровый (Sci-Fi)
Аудио #3 (Rus): AC-3, 192 Кбит/сек, 2 канала - одноголосый закадровый (Савченко)
Аудио #4 (Rus): DTS, 1509 Кбит/сек, 8/6 каналов - одноголосый закадровый (Сербин)
Аудио #5 (Eng): DTS, 1509 Кбит/сек, 8/6 каналов - оригинал
Субтитры:
#1 русские (Киномания) (вшитые, отключаемые)
#2 английские (вшитые, отключаемые)

Список серий

Первый сезон:
01 – Происшествие на северо-западе (пилотная серия) / Northwest Passage (Pilot)
02 – Следы в никуда / Traces to Nowhere
03 – Дзен, или Умение поймать убийцу / Zen, or the Skill to Catch a Killer
04 – Покойся с болью / Rest in Pain
05 – Однорукий / The One-Armed Man
06 – Сны Купера / Cooper's Dreams
07 – Время осмысления / Realization Time
08 – Последний вечер / The Last Evening
Второй сезон:
01 – Великан может быть с тобой / May the Giant Be with You
02 – Кома / Coma
03 – Человек за стеклом / The Man Behind the Glass
04 – Тайный дневник Лоры / Laura's Secret Diary
05 – Проклятие Орхидеи / The Orchid's Curse
06 – Демоны / Demons
07 – Одинокие души / Lonely Souls
08 – Поездка с мёртвой девушкой / Drive with a Dead Girl
09 – Самосуд / Arbitrary Law
10 – Спор между братьями / Dispute Between Brothers
11 – Бал-маскарад / Masked Ball
12 – Чёрная вдова / The Black Widow
13 – Шах и мат / Checkmate
14 – Двойная игра / Double Play
15 – Рабы и хозяева / Slaves and Masters
16 – Обречённая / The Condemned Woman
17 – Раны и шрамы / Wounds and Scars
18 – На крыльях любви / On the Wings of Love
19 – Перемены в расстановке сил / Variations and Relations
20 – Тропа к Чёрному Вигваму / The Path to the Black Lodge
21 – Ночь решений / Miss Twin Peaks
22 – Между жизнью и смертью / Beyond Life and Death

MI

General
Unique ID : 236680481504073198183408397340015418960 (0xB20F00AE32FCCE1088C24ECC4C115E50)
Complete name : 01 - [01-1] - Northwest Passage.mkv
Format : Matroska
Format version : Version 4 / Version 2
File size : 20.2 GiB
Duration : 1 h 34 min
Overall bit rate mode : Variable
Overall bit rate : 30.7 Mb/s
Movie name : Происшествие на северо-западе
Encoded date : UTC 2014-12-23 14:05:45
Writing application : mkvmerge v7.3.0 ('Nouages') 64bit built on Oct 22 2014 18:53:34
Writing library : libebml v1.3.0 + libmatroska v1.4.1
Video
ID : 1
Format : AVC
Format/Info : Advanced Video Codec
Format profile : High@L4.1
Format settings, CABAC : Yes
Format settings, ReFrames : 4 frames
Codec ID : V_MPEG4/ISO/AVC
Duration : 1 h 34 min
Bit rate mode : Variable
Bit rate : 20.0 Mb/s
Maximum bit rate : 38.0 Mb/s
Width : 1 920 pixels
Height : 1 080 pixels
Display aspect ratio : 16:9
Frame rate mode : Constant
Frame rate : 23.976 (23976/1000) FPS
Original frame rate : 23.976 (24000/1001) FPS
Color space : YUV
Chroma subsampling : 4:2:0
Bit depth : 8 bits
Scan type : Progressive
Bits/(Pixel*Frame) : 0.403
Stream size : 13.2 GiB (65%)
Default : Yes
Forced : No
Audio #1
ID : 2
Format : AC-3
Format/Info : Audio Coding 3
Mode extension : CM (complete main)
Format settings, Endianness : Big
Codec ID : A_AC3
Duration : 1 h 34 min
Bit rate mode : Constant
Bit rate : 192 kb/s
Channel(s) : 2 channels
Channel positions : Front: L R
Sampling rate : 48.0 kHz
Frame rate : 31.250 FPS (1536 spf)
Bit depth : 16 bits
Compression mode : Lossy
Stream size : 129 MiB (1%)
Title : ОРТ
Language : Russian
Default : Yes
Forced : No
Audio #2
ID : 3
Format : AC-3
Format/Info : Audio Coding 3
Mode extension : CM (complete main)
Format settings, Endianness : Big
Codec ID : A_AC3
Duration : 1 h 34 min
Bit rate mode : Constant
Bit rate : 192 kb/s
Channel(s) : 2 channels
Channel positions : Front: L R
Sampling rate : 48.0 kHz
Frame rate : 31.250 FPS (1536 spf)
Bit depth : 16 bits
Compression mode : Lossy
Stream size : 129 MiB (1%)
Title : Sci-Fi
Language : Russian
Default : No
Forced : No
Audio #3
ID : 4
Format : AC-3
Format/Info : Audio Coding 3
Mode extension : CM (complete main)
Format settings, Endianness : Big
Codec ID : A_AC3
Duration : 1 h 34 min
Bit rate mode : Constant
Bit rate : 192 kb/s
Channel(s) : 2 channels
Channel positions : Front: L R
Sampling rate : 48.0 kHz
Frame rate : 31.250 FPS (1536 spf)
Bit depth : 16 bits
Compression mode : Lossy
Stream size : 129 MiB (1%)
Title : Савченко
Language : Russian
Default : No
Forced : No
Audio #4
ID : 5
Format : DTS
Format/Info : Digital Theater Systems
Format profile : MA / Core
Mode : 16
Format settings, Endianness : Big
Codec ID : A_DTS
Duration : 1 h 34 min
Bit rate mode : Variable / Constant
Bit rate : 5 058 kb/s / 1 509 kb/s
Channel(s) : 8 channels / 6 channels
Channel positions : Front: L C R, Side: L R, Back: L R, LFE / Front: L C R, Side: L R, LFE
Sampling rate : 48.0 kHz
Frame rate : 93.750 FPS (512 spf)
Bit depth : 24 bits
Compression mode : Lossless / Lossy
Stream size : 3.32 GiB (16%)
Title : Сербин
Language : Russian
Default : No
Forced : No
Audio #5
ID : 6
Format : DTS
Format/Info : Digital Theater Systems
Format profile : MA / Core
Mode : 16
Format settings, Endianness : Big
Codec ID : A_DTS
Duration : 1 h 34 min
Bit rate mode : Variable / Constant
Bit rate : 5 038 kb/s / 1 509 kb/s
Channel(s) : 8 channels / 6 channels
Channel positions : Front: L C R, Side: L R, Back: L R, LFE / Front: L C R, Side: L R, LFE
Sampling rate : 48.0 kHz
Frame rate : 93.750 FPS (512 spf)
Bit depth : 24 bits
Compression mode : Lossless / Lossy
Stream size : 3.31 GiB (16%)
Language : English
Default : No
Forced : No
Text #1
ID : 7
Format : UTF-8
Codec ID : S_TEXT/UTF8
Codec ID/Info : UTF-8 Plain Text
Duration : 1 h 29 min
Bit rate : 85 b/s
Count of elements : 835
Stream size : 55.6 KiB (0%)
Title : Киномания
Language : Russian
Default : No
Forced : No
Text #2
ID : 8
Format : UTF-8
Codec ID : S_TEXT/UTF8
Codec ID/Info : UTF-8 Plain Text
Duration : 1 h 31 min
Bit rate : 55 b/s
Count of elements : 1124
Stream size : 36.9 KiB (0%)
Title : SDH
Language : English
Default : No
Forced : No
Menu
00:00:00.000 : ru:Глава I
00:15:30.510 : ru:Глава II
00:27:31.147 : ru:Глава III
00:44:14.525 : ru:Глава IV
00:52:44.286 : ru:Глава V
01:01:42.989 : ru:Глава VI
01:09:13.355 : ru:Глава VII
01:20:28.782 : ru:Глава VIII
01:33:13.627 : ru:Глава IX

Если ваш рейтинг упадет ниже 0,3, вы не сможете скачивать торренты! Подробнее о рейтинге.

[erzsebet.org].t26450.torrent 
Торрент: Зарегистрирован [ 2018-12-05 17:14 ]

Скачать .torrent

Скачать

2 MB

Статус: проверено
Скачан: 0 раз
Размер: 322,77 GB
Поблагодарили: 0  Спасибо
terms.php
[Профиль]  [ЛС] 
Показать сообщения:    
Ответить на тему

Текущее время: 19-Авг 11:55

Часовой пояс: UTC + 3



Вы не можете начинать темы
Вы не можете отвечать на сообщения
Вы не можете редактировать свои сообщения
Вы не можете удалять свои сообщения
Вы не можете голосовать в опросах
Вы не можете прикреплять файлы к сообщениям
Вы можете скачивать файлы