Erica McLean's Alice / Алиса от Erica McLean (Carlos Batts & Erica McLean / Cheeky Monkey / Cal Vista) [2010 г., Feature, Spoofs & Parodies, Sex, WEBRip]

Ответить на тему
 
Автор Сообщение

erzsebet ®

Стаж: 17 лет

Сообщений: 251217

Создавать темы 11-Сен-2019 08:15  |  Сменить автора

[Цитировать] 

Erica McLean's Alice Дата: 2010
Страна: USA
Жанр: Feature, Spoofs & Parodies, Sex
Продолжительность: 01:42:23
Язык: English
Режиссер: Carlos Batts, Erica McLean
Студия: Cheeky Monkey / Cal Vista / Metro
Описание: 19 year old Alice reunites with her childhood friends in a bizarre world of fantasy. She once again falls down the rabbit hole, but this time it’s a world filled with sex, perversion and debauchery.
Качество: WEBRip
Видео: MPEG4 Video (H264) 686x386 29.97fps 1800kbps
Аудио: AAC 44100Hz stereo 192kbps

Описание сцен

Сцена 1
В ролях: Aiden Starr vs. Andy San Dimas
Временной диапазон: 00:05:21 - 00:20:53
Продолжительность: 00:15:32-Сцена 2
В ролях: Sunny Lane vs. Otto Bauer
Временной диапазон: 00:20:54 - 00:42:59
Продолжительность: 00:22:05-Сцена 3
В ролях: April Flores vs. C.J. Wright
Временной диапазон: 00:43:00 - 00:45:56
Продолжительность: 00:02:56-Сцена 4
В ролях: Sunny Lane vs. Mikey Butders
Временной диапазон: 00:45:57 - 01:07:12
Продолжительность: 00:21:15-Сцена 5
В ролях: Katie St. Ives vs. Seth Gamble
Временной диапазон: 01:07:13 - 01:22:56
Продолжительность: 00:15:43-Сцена 6
В ролях: Sunny Lane vs. Evan Stone
Временной диапазон: 01:22:57 - 01:29:17
Продолжительность: 00:06:20-Сцена 7
В ролях: Kimberly Kane
Временной диапазон: 01:29:18 - 01:39:32
Продолжительность: 00:10:14

МедиаИнфо

General
Unique ID : 93135289361170739135371567198501320938 (0x4611344AC68CB18D0AA2598D3C77B8EA)
Complete name : D:\Torrents\Erica McLean's Alice [erzsebet.org].mkv
Format : Matroska
Format version : Version 4
File size : 1.43 GiB
Duration : 1 h 42 min
Overall bit rate : 1 997 kb/s
Movie name : https://erzsebet.org/
Encoded date : UTC 2019-09-09 01:55:52
Writing application : mkvmerge v35.0.0 ('All The Love In The World') 64-bit
Writing library : libebml v1.3.9 + libmatroska v1.5.2
Video
ID : 1
Format : AVC
Format/Info : Advanced Video Codec
Format profile : High@L3.1
Format settings : CABAC / 8 Ref Frames
Format settings, CABAC : Yes
Format settings, Reference fra : 8 frames
Codec ID : V_MPEG4/ISO/AVC
Duration : 1 h 42 min
Bit rate : 1 800 kb/s
Width : 686 pixels
Height : 386 pixels
Display aspect ratio : 16:9
Original display aspect ratio : 16:9
Frame rate mode : Constant
Frame rate : 29.970 (30000/1001) FPS
Color space : YUV
Chroma subsampling : 4:2:0
Bit depth : 8 bits
Scan type : Progressive
Bits/(Pixel*Frame) : 0.227
Stream size : 1.29 GiB (90%)
Language : English
Default : Yes
Forced : No
Audio
ID : 2
Format : AAC LC
Format/Info : Advanced Audio Codec Low Complexity
Codec ID : A_AAC-2
Duration : 1 h 42 min
Bit rate : 192 kb/s
Channel(s) : 2 channels
Channel layout : L R
Sampling rate : 44.1 kHz
Frame rate : 43.066 FPS (1024 SPF)
Compression mode : Lossy
Stream size : 142 MiB (10%)
Language : English
Default : Yes
Forced : No

Скринлист

Связанные раздачи
Добавлен Темы Размер S / L Ссылка
17-Окт-18 15:03 Erica McLean's Alice / Алиса от Erica McLean (Carlos Batts & Erica McLean / Cheeky Monkey / Cal Vista) [2010 г., Feature, Spoofs & Parodies, Sex, WEBRip]Отв. 0 1.43 GB 1 | 0 Скачать .torrent
17-Окт-18 09:04 Erica McLean's Alice / Алиса от Erica McLean (Carlos Batts & Erica McLean / Cheeky Monkey / Cal Vista) [2010 г., Feature, Spoofs & Parodies, Sex, 720p, BDRip]Отв. 0 4.21 GB | Скачать .torrent
[Профиль]  [ЛС] 
Показать сообщения:    
Ответить на тему

Текущее время: 20-Сен 13:39

Часовой пояс: UTC + 3



Вы не можете начинать темы
Вы не можете отвечать на сообщения
Вы не можете редактировать свои сообщения
Вы не можете удалять свои сообщения
Вы не можете голосовать в опросах
Вы не можете прикреплять файлы к сообщениям
Вы не можете скачивать файлы