Rei kan shoujo sareta shinjin taima-shi / Soul girl new face demon slayer the motion anime which was done to rape (survive more) (ep. 1 of 1) [cen] [2019, big breast, NTR, handjob, oral, paizuri, toys, creampie, WEB-DL] [jap] [720p]

Ответить на тему
Статистика раздачи
Размер:  1.12 GB   |    Зарегистрирован:  17 дней   |    Скачан:  0 раз
Сидов:  1   Личеров:  1  
 
 
Автор Сообщение

erzsebet ®

Стаж: 17 лет

Сообщений: 352465

Создавать темы 09-Фев-2020 12:21  |  Сменить автора

[Цитировать] 

Rei kan shoujo sareta shinjin taima-shi
Soul girl new face demon slayer the motion anime which was done to rape
霊姦少女 ○された新人退魔師 The Motion Anime

Год выпуска: 2019
Жанр: big breast, rape, oral, creampie
Серии: ep. 1 of 1
Продолжительность: 29mn
Цензура: Есть во всех файлах
Озвучка: Японская оригинальная
Субтитры: Японские встроенные неотключаемые (хардсаб)
Студия: survive more
Описание: The circle "loopsoft" Original CG Collection "soul girl ○ new face Demon Slayer which was done to rape" motion Anime! [thoroughly ○ ru tsu!] A girl of the new face Demon Slayer is worked as ○ by a Lactuca stolonifera ghost (main character) who took charge, and roll it up! Motion Anime improves 150% of true supplies by becoming it! Be sexy, and work!
◇Outline
One day to the cause of the main character who spent time as the Lactuca stolonifera soul in the back alley of the town, A girl of the Demon Slayer asked it. The regret that the girl will tie a main character with in this place Began talks with him to have you remembered it and enter Nirvana. At the time of So that a conversation got closer to the core, the main character is seized with the paramnesia that there is. Is clean, and girl, she of the gentle Demon Slayer of the heart are strong in a main character; thought Looked just like the woman whom I put it. With, at a moment of the So, a surge, the instinct giving it an order for his beating rapidly - which attacks a girl in front!
◇Heroine
Name: Takamiya Suzune (takamiyasuzune)
A voice actor: Wooden floor plug for a door of center hinge pivot distant hemp (suukitouma) The new face Priestess and Demon Slayer. A short cut, Huge Tits. A girl gentle at heart whom I am going to save by entering Nirvana in the Worry of the Lactuca stolonifera soul. To hear "me, the Worry of the Lactuca stolonifera soul, enter Nirvana It is work that get."
◆Character Designer : *tsukitsuzuri (yutsukitsuzuri)
◆Story: Gibson (Gibson)
◆Voice actor : Takamiya Suzune (takamiyasuzune) /CV. wooden floor plug for a door of center hinge pivot distant hemp (suukitouma)
https://www.dmm.co.jp/en/dc/doujin/-/detail/=/cid=d_158195/
https://www.dlsite.com/pro/announce/=/product_id/VJ012947.html
Качество видео: WEB-DL
Разрешение видео: 720p
Формат видео: MP4
Видео: 1280-720, 16-9, 29.97 fps, AVC, 5514 kbps
Аудио: jpn, AAC, Stereo, 44.1 KHz, 63.3 kbps

Скринлист

MediaInfo

General
Complete name : Rei kan shoujo sareta shinjin taima-shi [d_158195][B6D43F20].mp4
Format : MPEG-4
Format profile : Base Media
Codec ID : isom (isom/iso2/avc1/mp41)
File size : 1.12 GiB
Duration : 28 min 45 s
Overall bit rate : 5 559 kb/s
Writing application : Lavf58.20.100
Video
ID : 1
Format : AVC
Format/Info : Advanced Video Codec
Format profile : [email protected]
Format settings : CABAC / 4 Ref Frames
Format settings, CABAC : Yes
Format settings, RefFrames : 4 frames
Codec ID : avc1
Codec ID/Info : Advanced Video Coding
Duration : 28 min 45 s
Duration_FirstFrame : 1 ms
Bit rate : 5 514 kb/s
Width : 1 280 pixels
Height : 720 pixels
Display aspect ratio : 16:9
Frame rate mode : Constant
Frame rate : 29.970 (30000/1001) FPS
Color space : YUV
Chroma subsampling : 4:2:0
Bit depth : 8 bits
Scan type : Progressive
Bits/(Pixel*Frame) : 0.200
Stream size : 1.10 GiB (99%)
Writing library : x264 core 157 r2969 d4099dd
Encoding settings : cabac=1 / ref=3 / deblock=1:0:0 / analyse=0x3:0x113 / me=hex / subme=7 / psy=1 / psy_rd=1.00:0.00 / mixed_ref=1 / me_range=16 / chroma_me=1 / trellis=1 / 8x8dct=1 / cqm=0 / deadzone=21,11 / fast_pskip=1 / chroma_qp_offset=-2 / threads=76 / lookahead_threads=5 / sliced_threads=0 / nr=0 / decimate=1 / interlaced=0 / bluray_compat=0 / constrained_intra=0 / bframes=3 / b_pyramid=2 / b_adapt=1 / b_bias=0 / direct=1 / weightb=1 / open_gop=0 / weightp=2 / keyint=250 / keyint_min=25 / scenecut=40 / intra_refresh=0 / rc_lookahead=40 / rc=abr / mbtree=1 / bitrate=5514 / ratetol=1.0 / qcomp=0.60 / qpmin=0 / qpmax=69 / qpstep=4 / ip_ratio=1.40 / aq=1:1.00
Menus : 3
Codec configuration box : avcC
Audio
ID : 2
Format : AAC LC SBR
Format/Info : Advanced Audio Codec Low Complexity with Spectral Band Replication
Commercial name : HE-AAC
Format settings : Explicit
Codec ID : mp4a-40-2
Duration : 28 min 45 s
Bit rate mode : Constant
Bit rate : 63.3 kb/s
Channel(s) : 2 channels
Channel layout : L R
Sampling rate : 44.1 kHz
Frame rate : 21.533 FPS (2048 SPF)
Compression mode : Lossy
Stream size : 13.0 MiB (1%)
Default : Yes
Alternate group : 1
Menus : 3
Menu #1
ID : 3
Codec ID : text
Duration : 28 min 45 s
Language : English
Menu For : 1,2
Menu #2
[erzsebet.org].t2789309.torrent
Торрент: Зарегистрирован [ 2020-02-09 12:21 ]

Скачать .torrent

Скачать

12 KB

Статус: проверено
Скачан: 0 раз
Размер: 1.12 GB
Поблагодарили: 0  Спасибо
terms.php
Связанные раздачи
Добавлен Темы Размер S / L Ссылка
29-Сен-19 03:54 Rei kan shoujo sareta shinjin taima-shi / Soul girl new face demon slayer the motion anime which was done to rape (survive more) (ep. 1 of 1) [cen] [2019, big breast, NTR, handjob, oral, paizuri, toys, creampie, WEB-DLRip] [jap]Отв. 0 145 MB | Скачать .torrent
[Профиль]  [ЛС] 
Показать сообщения:    
Ответить на тему

Текущее время: 26-Фев 15:52

Часовой пояс: UTC + 3



Вы не можете начинать темы
Вы не можете отвечать на сообщения
Вы не можете редактировать свои сообщения
Вы не можете удалять свои сообщения
Вы не можете голосовать в опросах
Вы не можете прикреплять файлы к сообщениям
Вы можете скачивать файлы