Puritan Video Magazine 4 (Max Hardcore / Jim Powers / Puritan Video) [1996, Sex, Hardcore, Anal, Group Sex, Rough Sex, Deep Throat, Classic Porn, American, DVDRip] Alexxx Knight, Cortknee, Julie Rage, Lexi Leigh, Nina Cherry

Ответить на тему
Статистика раздачи
Размер:  2.27 GB   |    Зарегистрирован:  11 дней   |    Скачан:  0 раз
Сидов:  2   Личеров:  1  
 
 
Автор Сообщение

erzsebet ®

Стаж: 17 лет

Сообщений: 397807

Откуда: Венгрия

Создавать темы 26-Мар-2020 11:18  |  Сменить автора

[Цитировать] 

Puritan Video Magazine 4


Title: Puritan Video Magazine 4
Release Date: 1996
Country: USA
Genres: Sex, Hardcore, Anal, Group Sex, Rough Sex, Deep Throat, Classic Porn, American
Language: English
Duration: 01:54:59
Director: Max Hardcore / Jim Powers
Studio / Distributor: Puritan Video
Starring:
Alexxx Knight, Cortknee, Julie Rage, Lexi Leigh, Nina Cherry
Description:
Perhaps you're familiar with Puritan's Video Magazine series. Then again, perhaps you're not. Regardless, this is their fourth volume, and as this is an earlier issue, you could argue that it is more "unhinged" than some of their later issues. Here's a scene-by-scene breakdown. Plastic Wrapped Lovers: A kinky couple finds new ways of getting off. Wild River Whore: A gal walking by the river is found by Rex Reamer and gets his pile driver right up her ass. Dear Puritan: Another true life-story of a white trash whore. Starstruck Starlet: A movie producer interviews a new starlet who is eager to learn the ins and outs of movie making. Boot camp Gang Bang: This scene gives new meaning to the term "basic training."
Quality: DVDRip
Format: MKV
Video: MPEG4 Video (H264) 632x480 59.94fps 2600kbps
Audio: Dolby AC3 48000Hz stereo 224kbps

MediaInfo

Общее
Уникальный идентификатор : 113015464306750782539244811411289996373 (0x5505FC97A1C6F28E3451AA92F132FC55)
Полное имя : C:\ConvertVideo\Puritan Video Magazine 4 [erzsebet.org] DVDRip.mkv
Формат : Matroska
Версия формата : Version 2
Размер файла : 2,27 Гбайт
Продолжительность : 1 ч. 54 м.
Общий поток : 2828 Кбит/сек
Название фильма : Puritan Video Magazine 4 [erzsebet.org]
Дата кодирования : UTC 2020-03-25T21:34:50Z
Программа кодирования : HandBrake 0.10.5 2016021100
Библиотека кодирования : Lavf55.12.0
Видео
Идентификатор : 1
Формат : AVC
Формат/Информация : Advanced Video Codec
Профиль формата : [email protected]
Настройки формата : CABAC / 16 Ref Frames
Параметр CABAC формата : Да
Параметр RefFrames формата : 16 кадров
Идентификатор кодека : V_MPEG4/ISO/AVC
Продолжительность : 1 ч. 54 м.
Битрейт : 2600 Кбит/сек
Ширина : 632 пикселя
Высота : 480 пикселей
Соотношение сторон : 4:3
Режим частоты кадров : Постоянный
Частота кадров : 59,940 (60000/1001) кадров/сек
Цветовое пространство : YUV
Субдискретизация насыщенности : 4:2:0
Битовая глубина : 8 бит
Тип развёртки : Прогрессивная
Бит/(Пиксели*Кадры) : 0.143
Размер потока : 2,05 Гбайт (90%)
Библиотека кодирования : x264 core 142 r2479 dd79a61
Настройки программы : cabac=1 / ref=16 / deblock=1:-1:-1 / analyse=0x3:0x133 / me=umh / subme=10 / psy=1 / psy_rd=1.00:0.15 / mixed_ref=1 / me_range=24 / chroma_me=1 / trellis=2 / 8x8dct=1 / cqm=0 / deadzone=21,11 / fast_pskip=1 / chroma_qp_offset=-3 / threads=6 / lookahead_threads=1 / sliced_threads=0 / nr=0 / decimate=1 / interlaced=0 / bluray_compat=0 / constrained_intra=0 / bframes=8 / b_pyramid=2 / b_adapt=2 / b_bias=0 / direct=3 / weightb=1 / open_gop=0 / weightp=2 / keyint=600 / keyint_min=60 / scenecut=40 / intra_refresh=0 / rc_lookahead=60 / rc=2pass / mbtree=1 / bitrate=2600 / ratetol=1.0 / qcomp=0.60 / qpmin=0 / qpmax=69 / qpstep=4 / cplxblur=20.0 / qblur=0.5 / vbv_maxrate=62500 / vbv_bufsize=78125 / nal_hrd=none / filler=0 / ip_ratio=1.40 / aq=1:1.00
Default : Да
Forced : Нет
Цветовой диапазон : Limited
Основные цвета : BT.601 PAL
Характеристики трансфера : BT.709
Коэффициенты матрицы : BT.601
Аудио
Идентификатор : 2
Формат : AC-3
Формат/Информация : Audio Coding 3
Коммерческое название : Dolby Digital
Идентификатор кодека : A_AC3
Продолжительность : 1 ч. 54 м.
Вид битрейта : Постоянный
Битрейт : 224 Кбит/сек
Каналы : 2 канала
ChannelLayout : L R
Частота : 48,0 КГц
Частота кадров : 31,250 кадров/сек (1536 SPF)
Битовая глубина : 16 бит
Метод сжатия : С потерями
Задержка видео : -5 мс.
Размер потока : 184 Мбайт (8%)
Заголовок : Stereo
Язык : English
ServiceKind/String : Complete Main
Default : Да
Forced : Нет

Screenshots

[erzsebet.org].t2845383.torrent
Торрент: Зарегистрирован [ 2020-03-26 11:21 ]

Скачать .torrent

Скачать

3 KB

Статус: проверено
Скачан: 0 раз
Размер: 2.27 GB
Поблагодарили: 0  Спасибо
terms.php
Связанные раздачи
Добавлен Темы Размер S / L Ссылка
21-Мар-20 23:19 Puritan Video Magazine 4 (Max Hardcore / Jim Powers / Puritan Video) [1996, Sex, Hardcore, Anal, Group Sex, Rough Sex, Deep Throat, Classic Porn, American, DVD5] Alexxx Knight, Cortknee, Julie Rage, Lexi Leigh, Nina CherryОтв. 0 4.21 GB 1 | 0 Скачать .torrent
[Профиль]  [ЛС] 
Показать сообщения:    
Ответить на тему

Текущее время: 06-Апр 23:41

Часовой пояс: UTC + 3



Вы не можете начинать темы
Вы не можете отвечать на сообщения
Вы не можете редактировать свои сообщения
Вы не можете удалять свои сообщения
Вы не можете голосовать в опросах
Вы не можете прикреплять файлы к сообщениям
Вы можете скачивать файлы