Remy / Реми (Mason, Elegant Angel) [2012 г., Gonzo, Anal, DP, 1080p, Blu-ray] (Jada Stevens, Remy LaCroix, Lexi Belle, Michael Stefano, Manuel Ferrara, Lexington Steele, Erik Everhard, Ramon Nomar)

Ответить на тему
Статистика раздачи
Размер:  21.87 GB   |    Зарегистрирован:  13 дней   |    Скачан:  2 раза
Сидов:  2   Личеров:  1  
 
 
Автор Сообщение

Gwori ®

Стаж: 3 месяца 26 дней

Сообщений: 53

Создавать темы 23-Май-2020 10:29  |  Сменить автора

[Цитировать] 

Remy (Реми) Год производства: 2012 г.
Страна: USA
Жанр: Gonzo, Anal, DP
Продолжительность: 02:57:56
Режиссер: Mason
Студия: Elegant Angel
Язык: Английский
В ролях: Jada Stevens, Remy LaCroix, Lexi Belle, Michael Stefano, Manuel Ferrara, Lexington Steele, Erik Everhard, Ramon Nomar
Описание: 2013 AVN Award Winner for Best Tease Performance.
2013 AVN Award Nominee for Best Double Penetration Sex Scene.
2013 AVN Award Nominee for Best Girl/Girl Sex Scene.
2013 AVN Award Nominee for Best Star Showcase.

Feast your eyes on Remy La Croix - brand new, beautiful, and depraved! This brunette vixen is a superstar in the making! She loves sex, and she proves it time and time again by giving you the hottest scenes with both men and women. She can lick a pussy or suck a dick like no other! And let's not even mention how she takes anal like a champ! Enjoy this celebration of her perversity! And in between the scenes, she'll give you a peek into her private life through brief interviews.
A true original and the total package. Featuring a DP, plenty of anal, and also starring Jada Stevens and Lexi Belle. Enjoy the epicness that is Remy LaCroix. Directed by the award winning Mason.
Сцены:
Scene 1. Jada Stevens, Remy LaCroix, Michael Stefano
Scene 2. Remy LaCroix, Manuel Ferrara
Scene 3. Lexi Belle, Remy LaCroix
Scene 4. Remy LaCroix, Lexington Steele
Scene 5. Remy LaCroix, Erik Everhard, Ramon Nomar
Меню: Есть
Тип HD видео: 1080p
Качество видео: Blu-Ray
Видео: AVC, 1920x1080, 16:9, 29.97 fps, ~20.0 Mb/s
Аудио: AC-3, 2 channels, 48.0 KHz, 192 kb/s

Скриншоты

MediaInfo

Format : BDAV
Format/Info : Blu-ray Video
File size : 17.2 GiB
Duration : 2 h 57 min
Overall bit rate mode : Variable
Overall bit rate : 13.9 Mb/s
Maximum Overall bit rate : 48.0 Mb/s
Video
ID : 4113 (0x1011)
Menu ID : 1 (0x1)
Format : MPEG Video
Format version : Version 2
Format profile : [email protected]
Format settings : CustomMatrix / BVOP
Format settings, BVOP : Yes
Format settings, Matrix : Custom
Format settings, GOP : M=3, N=15
Codec ID : 2
Duration : 2 h 57 min
Bit rate mode : Variable
Bit rate : 13.1 Mb/s
Maximum bit rate : 24.0 Mb/s
Width : 1 920 pixels
Height : 1 080 pixels
Display aspect ratio : 16:9
Frame rate : 23.976 (24000/1001) FPS
Color space : YUV
Chroma subsampling : 4:2:0
Bit depth : 8 bits
Scan type : Progressive
Compression mode : Lossy
Bits/(Pixel*Frame) : 0.264
Time code of first frame : 01:00:00:00
Time code source : Group of pictures header
GOP, Open/Closed : Open
GOP, Open/Closed of first f : Closed
Stream size : 16.3 GiB (95%)
Audio
ID : 4352 (0x1100)
Menu ID : 1 (0x1)
Format : AC-3
Format/Info : Audio Coding 3
Commercial name : Dolby Digital
Codec ID : 129
Duration : 2 h 57 min
Bit rate mode : Constant
Bit rate : 192 kb/s
Channel(s) : 2 channels
Channel layout : L R
Sampling rate : 48.0 kHz
Frame rate : 31.250 FPS (1536 SPF)
Compression mode : Lossy
Stream size : 244 MiB (1%)
Service kind : Complete Main
[erzsebet.org].t2894021.torrent
Торрент: Зарегистрирован [ 2020-05-23 10:29 ]

Скачать .torrent

Скачать

114 KB

Статус: проверено
Скачан: 2 раз
Размер: 21.87 GB
Поблагодарили: 1  Спасибо   (список)
terms.php
[Профиль]  [ЛС] 

erzsebet

Стаж: 18 лет

Сообщений: 444775

Откуда: Венгрия

Создавать темы 23-Май-2020 17:29 (спустя 7 часов)  |  Сменить автора

[Цитировать] 

Gwori, Мы с тобой красавцы
у тебя это есть кстати - https://erzsebet.org/viewtopic.php?t=2893774
Если нету, забирай пока разогнал
нет ничего хуже когда релизеры становятся коллекционерами (смеюсь сильно)
[Профиль]  [ЛС] 
Показать сообщения:    
Ответить на тему

Текущее время: 05-Июн 18:50

Часовой пояс: UTC + 3



Вы не можете начинать темы
Вы не можете отвечать на сообщения
Вы не можете редактировать свои сообщения
Вы не можете удалять свои сообщения
Вы не можете голосовать в опросах
Вы не можете прикреплять файлы к сообщениям
Вы можете скачивать файлы