Подводная эра / Deep (Джулио Сото Гарпид / Julio Soto Gurpide) [2017, США, Испания, Бельгия, мультфильм, комедия, приключения BDRip-AVC] Dub (iTunes Rus, Ukr) + Sub (Rus, Ukr, Eng) + Original

Ответить на тему
Статистика раздачи
Размер:  3.13 GB   |    Зарегистрирован:  10 дней   |    Скачан:  0 раз
Сидов:  1   Личеров:  1  
 
 
Автор Сообщение

erzsebet ®

Стаж: 18 лет

Сообщений: 470810

Откуда: Венгрия

Создавать темы 30-Июн-2020 10:49  |  Сменить автора

[Цитировать] 

Подводная эра / Deep- Страна: Испания, Бельгия, Швейцария, США, Китай, Великобритания.
Жанр: мультфильм, комедия, приключения, семейный
Production Co: The Thinklab, The Kraken Films, Umedia
Год выпуска: 2017
Продолжительность: 01:32:26
Перевод: Профессиональный (дублированный) | iTunes RUS, UKR
Субтитры: Rus (Forced), Ukr (Forced), Eng (Full, SDH)
Оригинальная аудиодорожка: Eng-Режиссер:
Джулио Сото Гарпид / Julio Soto Gurpide-В ролях:
Джастин Фелбингер, Линдси Алена, Стивен Хьюз, Льюис Маклауд, Джесс Харнелл, Фил ЛаМарр, Джефф Беннетт, Дэйв Фенной, Боб Берген, Джен Тейлор-Описание:К 2100 году люди покинули нашу планету. Но в глубокой впадине на самом дне океана продолжает жить колония удивительных морских существ. Среди них любопытный глубоководный осьминожек Дип и двое его друзей — пугливый удильщик Иво и импульсивная креветка Элис. Однако, когда их дому угрожает опасность, мудрый дедушка Дипа, гигантский осьминог Кракен, отправляет их за помощью на другой конец океана. Друзей и присоединившуюся к ним стеснительную мурену Мойру ждет целое море опасных и невероятных приключений…-релиз:

IMDb: 4.00 (1134)
Sample-Качество видео: BDRip-AVC | DEEP_3D_2D
Формат видео: MKV
Видео: AVC 3623 kb/s 1088 x 586 (1.857) 23.976 fps
Аудио 1: AC-3 384 kb/s6 channels, 48.0 kHz | RUS iTunes
Аудио 2: AC-3 384 kb/s6 channels, 48.0 kHz | UKR iTunes
Аудио 2: AC-3 448 kb/s6 channels, 48.0 kHz | ENG

MediaInfo | Log

Log

x264 [info]: frame I:1209 Avg QP:12.26 size: 87601
x264 [info]: frame P:33445 Avg QP:14.02 size: 35696
x264 [info]: frame B:98311 Avg QP:16.75 size: 12323
x264 [info]: consecutive B-frames: 3.4% 2.9% 15.3% 32.2% 15.0% 27.6% 1.2% 1.7% 0.6%
x264 [info]: mb I I16..4: 9.7% 59.0% 31.2%
x264 [info]: mb P I16..4: 2.4% 21.1% 5.5% P16..4: 22.0% 24.0% 11.2% 2.5% 0.4% skip:11.0%
x264 [info]: mb B I16..4: 0.7% 4.0% 0.7% B16..8: 24.6% 19.9% 4.9% direct: 7.1% skip:38.1% L0:41.3% L1:41.3% BI:17.4%
x264 [info]: 8x8 transform intra:72.3% inter:48.2%
x264 [info]: direct mvs spatial:99.8% temporal:0.2%
x264 [info]: coded y,uvDC,uvAC intra: 78.2% 89.9% 81.4% inter: 21.8% 26.1% 10.5%
x264 [info]: i16 v,h,dc,p: 19% 18% 6% 57%
x264 [info]: i8 v,h,dc,ddl,ddr,vr,hd,vl,hu: 11% 16% 15% 7% 9% 8% 10% 10% 14%
x264 [info]: i4 v,h,dc,ddl,ddr,vr,hd,vl,hu: 16% 17% 14% 6% 11% 9% 10% 7% 10%
x264 [info]: i8c dc,h,v,p: 40% 30% 16% 14%
x264 [info]: Weighted P-Frames: Y:4.5% UV:3.4%
x264 [info]: ref P L0: 52.9% 9.8% 13.2% 5.6% 4.4% 3.4% 3.0% 2.0% 1.9% 1.7% 1.9% 0.2% 0.0%
x264 [info]: ref B L0: 81.3% 7.6% 3.7% 2.1% 1.5% 1.3% 1.0% 0.8% 0.5% 0.3%
x264 [info]: ref B L1: 97.0% 3.0%
x264 [info]: kb/s:3622.68
x264 [total]: encoded 132965 frames, 13.48 fps, 3622.68 kb/s
Format : Matroska
Format version : Version 4
File size : 3.13 GiB
Duration : 1 h 32 min
Overall bit rate : 4 841 kb/s
Movie name : Deep (2017) [erzsebet.org.org]
Encoded date : UTC 2019-10-15 09:17:09
Writing application : mkvmerge v8.2.0 ('World of Adventure') 64bit
Writing library : libebml v1.3.1 + libmatroska v1.4.2
Video
ID : 1
Format : AVC
Format/Info : Advanced Video Codec
Format profile : [email protected]
Format settings : CABAC / 11 Ref Frames
Format settings, CABAC : Yes
Format settings, Reference frames : 11 frames
Codec ID : V_MPEG4/ISO/AVC
Duration : 1 h 32 min
Bit rate : 3 623 kb/s
Width : 1 088 pixels
Height : 586 pixels
Display aspect ratio : 1.85:1
Frame rate mode : Constant
Frame rate : 23.976 (24000/1001) FPS
Color space : YUV
Chroma subsampling : 4:2:0
Bit depth : 8 bits
Scan type : Progressive
Bits/(Pixel*Frame) : 0.237
Stream size : 2.34 GiB (75%)
Title : Deep (2017) [erzsebet.org.org]
Writing library : x264 core 157 r2969 d4099dd
Encoding settings : cabac=1 / ref=11 / deblock=1:-3:-2 / analyse=0x3:0x133 / me=umh / subme=11 / psy=1 / psy_rd=1.00:0.05 / mixed_ref=1 / me_range=48 / chroma_me=1 / trellis=2 / 8x8dct=1 / cqm=0 / deadzone=21,11 / fast_pskip=0 / chroma_qp_offset=-3 / threads=12 / lookahead_threads=2 / sliced_threads=0 / nr=0 / decimate=1 / interlaced=0 / bluray_compat=0 / constrained_intra=0 / bframes=8 / b_pyramid=2 / b_adapt=2 / b_bias=0 / direct=3 / weightb=1 / open_gop=0 / weightp=2 / keyint=250 / keyint_min=23 / scenecut=40 / intra_refresh=0 / rc_lookahead=60 / rc=crf / mbtree=0 / crf=16.3 / qcomp=0.60 / qpmin=0 / qpmax=69 / qpstep=4 / vbv_maxrate=50000 / vbv_bufsize=62500 / crf_max=0.0 / nal_hrd=none / filler=0 / ip_ratio=1.40 / pb_ratio=1.30 / aq=3:0.90
Language : English
Default : Yes
Forced : No
Audio #1
ID : 2
Format : AC-3
Format/Info : Audio Coding 3
Commercial name : Dolby Digital
Codec ID : A_AC3
Duration : 1 h 32 min
Bit rate mode : Constant
Bit rate : 384 kb/s
Channel(s) : 6 channels
Channel layout : L R C LFE Ls Rs
Sampling rate : 48.0 kHz
Frame rate : 31.250 FPS (1536 SPF)
Bit depth : 16 bits
Compression mode : Lossy
Stream size : 254 MiB (8%)
Title : DUB (iTunes)
Language : Russian
Service kind : Complete Main
Default : Yes
Forced : No
Audio #2
ID : 3
Format : AC-3
Format/Info : Audio Coding 3
Commercial name : Dolby Digital
Codec ID : A_AC3
Duration : 1 h 32 min
Bit rate mode : Constant
Bit rate : 384 kb/s
Channel(s) : 6 channels
Channel layout : L R C LFE Ls Rs
Sampling rate : 48.0 kHz
Frame rate : 31.250 FPS (1536 SPF)
Bit depth : 16 bits
Compression mode : Lossy
Stream size : 254 MiB (8%)
Title : DUB (iTunes)
Language : Ukrainian
Service kind : Complete Main
Default : No
Forced : No
Audio #3
ID : 4
Format : AC-3
Format/Info : Audio Coding 3
Commercial name : Dolby Digital
Codec ID : A_AC3
Duration : 1 h 32 min
Bit rate mode : Constant
Bit rate : 448 kb/s
Channel(s) : 6 channels
Channel layout : L R C LFE Ls Rs
Sampling rate : 48.0 kHz
Frame rate : 31.250 FPS (1536 SPF)
Bit depth : 16 bits
Compression mode : Lossy
Stream size : 296 MiB (9%)
Title : Original
Language : English
Service kind : Complete Main
Default : No
Forced : No
Text #1
ID : 5
Format : UTF-8
Codec ID : S_TEXT/UTF8
Codec ID/Info : UTF-8 Plain Text
Duration : 1 h 14 min
Bit rate : 0 b/s
Count of elements : 10
Stream size : 271 Bytes (0%)
Title : Forced
Language : Russian
Default : Yes
Forced : No
Text #2
ID : 6
Format : UTF-8
Codec ID : S_TEXT/UTF8
Codec ID/Info : UTF-8 Plain Text
Duration : 1 h 25 min
Bit rate : 0 b/s
Count of elements : 11
Stream size : 295 Bytes (0%)
Title : Forced
Language : Ukrainian
Default : No
Forced : No
Text #3
ID : 7
Format : UTF-8
Codec ID : S_TEXT/UTF8
Codec ID/Info : UTF-8 Plain Text
Duration : 1 h 31 min
Bit rate : 75 b/s
Count of elements : 1539
Stream size : 50.8 KiB (0%)
Title : Full
Language : English
Default : No
Forced : No
Text #4
ID : 8
Format : UTF-8
Codec ID : S_TEXT/UTF8
Codec ID/Info : UTF-8 Plain Text
Duration : 1 h 31 min
Bit rate : 85 b/s
Count of elements : 1782
Stream size : 57.1 KiB (0%)
Title : SDH
Language : English
Default : No
Forced : No
Menu
00:00:00.000 : :1
00:07:53.181 : :2
00:16:39.749 : :3
00:23:19.690 : :4
00:29:03.825 : :5
00:35:58.156 : :6
00:45:12.126 : :7
00:53:12.523 : :8
01:03:25.885 : :9
01:09:51.312 : :10
01:18:50.601 : :11
01:26:38.318 : :12

Скриншоты



[erzsebet.org].t2924558.torrent
Торрент: Зарегистрирован [ 2020-06-30 10:49 ]

Скачать .torrent

Скачать

16 KB

Статус: проверено
Скачан: 0 раз
Размер: 3.13 GB
Поблагодарили: 0  Спасибо
terms.php
Связанные раздачи
Добавлен Темы Размер S / L Ссылка
08-Апр-20 09:23 Подводная эра в 3Д / Deep 3D (Джулио Сото Гарпид / Julio Soto Gurpide) [2017, мультфильм, приключения, фантастика, комедия, семейный, BDRip] iTunes, Half OverUnder / Вертикальная анаморфная стереопараОтв. 0 7.36 GB | Скачать .torrent
01-Апр-20 03:11 [VIDEO43DS] Подводная эра в 3Д / Deep 3D [Джулио Сото Гарпид / Julio Soto Gurpide][2017, Мультфильм, Комедия, Семейный, 240p MOFLEX]Отв. 0 1.2 GB | Скачать .torrent
12-Сен-19 05:42 Подводная эра / Deep (Джулио Сото Гарпид / Julio Soto Gurpide) [2017, США, Испания, Бельгия, мультфильм, комедия, приключения, семейный, WEB-DL 1080p] 2x Dub (Rus, Ukr)Отв. 0 3.64 GB | Скачать .torrent
[Профиль]  [ЛС] 
Показать сообщения:    
Ответить на тему

Текущее время: 11-Июл 01:04

Часовой пояс: UTC + 3



Вы не можете начинать темы
Вы не можете отвечать на сообщения
Вы не можете редактировать свои сообщения
Вы не можете удалять свои сообщения
Вы не можете голосовать в опросах
Вы не можете прикреплять файлы к сообщениям
Вы можете скачивать файлы