Лаборатория Декстера. Путешествие в свое будущее / Лаборатория Декстера: Загляни в свое будущее / Dexter's Laboratory: Ego Trip (Генндий Тартаковский / Genndy Tartakovsky) [1999, США, мультфильм, приключения, фантастика, DVDRemux] Dub + Original eng

Ответить на тему
Статистика раздачи
Размер:  2.54 GB   |    Зарегистрирован:  11 дней   |    Скачан:  0 раз
Сидов:  1   Личеров:  1  
 
 
Автор Сообщение

erzsebet ®

Стаж: 18 лет

Сообщений: 471164

Откуда: Венгрия

Создавать темы 30-Июн-2020 10:49  |  Сменить автора

[Цитировать] 

Лаборатория Декстера. Путешествие в свое будущее / Лаборатория Декстера: Загляни в свое будущее / Dexter's Laboratory: Ego Trip- Страна: США
Жанр: мультфильм, комедия, семейный, приключения, научная фантастика
Год выпуска: 1999
Продолжительность: 00:50:00-Перевод: Профессиональный (дублированный) - "Мост-видео"
Субтитры: нет-Режиссер: Генндий Тартаковский / Genndy Tartakovsky
Роли озвучивали: Кристин Кавана, Эдди Дизен, Джефф Беннетт, Кэт Суси, Кэт Крессида, Том Кенни
Роли дублировали: Ольга Кузнецова, Алексей Золотницкий, Дмитрий Филимонов- | Релиз: -Описание: Юный вундеркинд Декстер дни и ночи проводит в своей лаборатории. Гениальные изобретения выходят из его рук, словно пирожки. Однако, это вызывает не только восхищение окружающих, но и черную зависть одноклассника - двоечника, который спит и видит, как украсть то или иное творение Декстера и приписать авторство себе! Декстер начинает серьезно беспокоится о том, во что все это выльется в будущем. И вот, с помощью машины времени, он отправляется в длительное путешествие в будущее, неоднократно встречая там... себя самого! Удастся ли всем Декстерам из разных периодов времени исправить в будущем ошибки прошлого?-Доп. информация:
- Source: Dexter's Laboratory (1996-2003) 12xDVD9 NTSC-CultFilms™ - Thanks!
- За любезно предоставленную видеокассету производства "Інтер-Фільм" (Україна) спасибо Shizofreeze.
- Оцифровка кассеты, работа со звуком и подготовка релиза: xfiles.-Семпл: http://sendfile.su/1519343-Тип релиза: DVDRemux 480i
Контейнер: MKV
Видео: NTSC 720x480 (4:3) @ 640x480, 29.970 fps, MPEG-2 Video, 5971 kbps
Аудио 1: Русский, 48.0 KHz, AC3, 2 ch, 224 kbps - Дубляж «Мост-Видео» | VHS Hi-Fi
Аудио 2: English, 48.0 KHz, AC3, 2 ch, 224 kbps - Original | DVD
Аудио 3: Русский, 48.0 KHz, 16-bit, FLAC, 2 ch, 839 kbps - Дубляж «Мост-Видео»

MediaInfo

General
Unique ID : 689128497973249071254930598703052971 (0x84B8A87DD942931DAD37C5AD6EB8AB)
Complete name : Dexter's Laboratory Ego Trip 1999 NTSC DVDRemux.mkv
Format : Matroska
Format version : Version 4
File size : 2.54 GiB
Duration : 49 min 59 s
Overall bit rate mode : Variable
Overall bit rate : 7 264 kb/s
Encoded date : UTC 2019-09-30 19:19:34
Writing application : mkvmerge v35.0.0 ('All The Love In The World') 64-bit
Writing library : libebml v1.3.9 + libmatroska v1.5.2
Video
ID : 1
Format : MPEG Video
Format version : Version 2
Format profile : [email protected]
Format settings : CustomMatrix / BVOP
Format settings, BVOP : Yes
Format settings, Matrix : Custom
Format settings, GOP : M=3, N=12
Format settings, picture structure : Frame
Codec ID : V_MPEG2
Codec ID/Info : MPEG 1 or 2 Video
Duration : 49 min 59 s
Bit rate mode : Variable
Maximum bit rate : 9 800 kb/s
Width : 720 pixels
Height : 480 pixels
Display aspect ratio : 4:3
Frame rate mode : Constant
Frame rate : 29.970 (30000/1001) FPS
Standard : NTSC
Color space : YUV
Chroma subsampling : 4:2:0
Bit depth : 8 bits
Scan type : Interlaced
Scan order : Bottom Field First
Compression mode : Lossy
Time code of first frame : 00:00:00;00
Time code source : Group of pictures header
GOP, Open/Closed : Closed
Default : Yes
Forced : No
Audio #1
ID : 2
Format : AC-3
Format/Info : Audio Coding 3
Commercial name : Dolby Digital
Codec ID : A_AC3
Duration : 49 min 59 s
Bit rate mode : Constant
Bit rate : 224 kb/s
Channel(s) : 2 channels
Channel layout : L R
Sampling rate : 48.0 kHz
Frame rate : 31.250 FPS (1536 SPF)
Compression mode : Lossy
Stream size : 80.1 MiB (3%)
Title : Дубляж «Мост-Видео» | VHS Hi-Fi
Language : Russian
Service kind : Complete Main
Default : Yes
Forced : No
Audio #2
ID : 3
Format : AC-3
Format/Info : Audio Coding 3
Commercial name : Dolby Digital
Codec ID : A_AC3
Duration : 49 min 59 s
Bit rate mode : Constant
Bit rate : 224 kb/s
Channel(s) : 2 channels
Channel layout : L R
Sampling rate : 48.0 kHz
Frame rate : 31.250 FPS (1536 SPF)
Compression mode : Lossy
Stream size : 80.1 MiB (3%)
Title : Original | DVD
Language : English
Service kind : Complete Main
Default : No
Forced : No
Audio #3
ID : 4
Format : FLAC
Format/Info : Free Lossless Audio Codec
Codec ID : A_FLAC
Duration : 49 min 59 s
Bit rate mode : Variable
Channel(s) : 2 channels
Sampling rate : 48.0 kHz
Bit depth : 16 bits
Compression mode : Lossless
Title : Дубляж «Мост-Видео» | VHS Hi-Fi | 16-bit 48 kHz FLAC 839 kbps
Writing library : libFLAC 1.2.1 (UTC 2007-09-17)
Language : Russian
Default : No
Forced : No
Menu
00:00:00.000 : en:Chapter 1
00:10:09.867 : en:Chapter 2
00:19:42.300 : en:Chapter 3
00:28:27.466 : en:Chapter 4
00:37:04.266 : en:Chapter 5
00:49:24.633 : en:Chapter 6

Скриншоты

Скан обложки VHS

[erzsebet.org].t2924560.torrent
Торрент: Зарегистрирован [ 2020-06-30 10:49 ]

Скачать .torrent

Скачать

13 KB

Статус: проверено
Скачан: 0 раз
Размер: 2.54 GB
Поблагодарили: 0  Спасибо
terms.php
[Профиль]  [ЛС] 
Показать сообщения:    
Ответить на тему

Текущее время: 12-Июл 02:29

Часовой пояс: UTC + 3



Вы не можете начинать темы
Вы не можете отвечать на сообщения
Вы не можете редактировать свои сообщения
Вы не можете удалять свои сообщения
Вы не можете голосовать в опросах
Вы не можете прикреплять файлы к сообщениям
Вы можете скачивать файлы