Маугли дикой планеты / Terra Willy: Planète inconnue / Astro Kid (Эрик Тости / Eric Tosti) [2019, Франция, мультфильм, фантастика, приключения, BDRip-AVC] Dub (iTunes) + Sub (Eng) + Eng

Ответить на тему
Статистика раздачи
Размер:  2.13 GB   |    Зарегистрирован:  10 дней   |    Скачан:  0 раз
Сидов:  1   Личеров:  1  
 
 
Автор Сообщение

erzsebet ®

Стаж: 18 лет

Сообщений: 470810

Откуда: Венгрия

Создавать темы 30-Июн-2020 10:49  |  Сменить автора

[Цитировать] 

Маугли дикой планеты
Terra Willy: Planète inconnue | Astro Kid

«Выжить по законам космических джунглей!»
- Страна: Франция
Жанр: мультфильм, фантастика, комедия, приключения
Год выпуска: 2019
Продолжительность: 01:30:03-Перевод: Профессиональный (дублированный) | iTunes
Субтитры: Eng (Full)
Оригинальная аудиодорожка: нет-Режиссер:
Эрик Тости / Eric Tosti-В ролях: Тимоте Фон Дорп, Эдуард Баэр, Мари-Южени Марешаль, Гийом Лебон, Барбара Тиссье, Джейсон Каннинг, Лэнден Битти-Описание:Попав в метеоритный дождь, юный космический исследователь Вилли оказывается на неизвестной планете. С помощью робота Бака он должен выжить здесь до прибытия спасательной миссии его родителей. Но батарея Бака быстро садится, и, чтобы спасти Бака и вернуться домой, Вилли придется найти новых друзей и научиться жить по законам джунглей дикой планеты.-релиз:

IMDb: 6.30 (267)
Sample-Качество видео: BDRip-AVC | Astro.Kid.2019.BDREMUX.1080p.seleZen
Формат видео: MKV
Видео: AVC 2555 kb/s 1088 x 456 (2.386) 24.000 fps
Аудио: AC-3 384 kb/s 6 channels, 48.0 kHz Rus iTunes
Аудио 2: AC-3 448 kb/s 6 channels, 48.0 kHz Eng

MediaInfo | Log

Log

x264 [info]: frame I:1123 Avg QP:13.22 size:122658
x264 [info]: frame P:33136 Avg QP:14.86 size: 28384
x264 [info]: frame B:95435 Avg QP:16.99 size: 6785
x264 [info]: consecutive B-frames: 4.3% 4.2% 14.2% 25.6% 16.4% 28.3% 2.9% 2.3% 1.8%
x264 [info]: mb I I16..4: 7.4% 50.6% 42.0%
x264 [info]: mb P I16..4: 1.0% 11.7% 2.8% P16..4: 25.4% 22.8% 15.8% 4.6% 1.2% skip:14.7%
x264 [info]: mb B I16..4: 0.2% 1.6% 0.3% B16..8: 23.3% 16.2% 3.9% direct: 5.6% skip:48.8% L0:36.6% L1:43.7% BI:19.7%
x264 [info]: 8x8 transform intra:72.3% inter:42.9%
x264 [info]: direct mvs spatial:99.9% temporal:0.1%
x264 [info]: coded y,uvDC,uvAC intra: 85.0% 91.2% 83.1% inter: 18.3% 19.4% 11.2%
x264 [info]: i16 v,h,dc,p: 18% 20% 9% 52%
x264 [info]: i8 v,h,dc,ddl,ddr,vr,hd,vl,hu: 13% 17% 12% 7% 8% 8% 10% 10% 15%
x264 [info]: i4 v,h,dc,ddl,ddr,vr,hd,vl,hu: 14% 15% 11% 7% 12% 10% 12% 8% 11%
x264 [info]: i8c dc,h,v,p: 38% 31% 15% 16%
x264 [info]: Weighted P-Frames: Y:3.6% UV:2.5%
x264 [info]: ref P L0: 58.6% 11.0% 11.7% 5.2% 3.3% 3.0% 2.2% 1.5% 1.2% 1.1% 1.0% 0.1% 0.0%
x264 [info]: ref B L0: 77.5% 9.7% 4.5% 2.2% 1.9% 1.2% 1.3% 0.7% 0.7% 0.2%
x264 [info]: ref B L1: 95.0% 5.0%
x264 [info]: kb/s:2554.95
x264 [total]: encoded 129694 frames, 18.99 fps, 2554.95 kb/s
Format : Matroska
Format version : Version 4
File size : 2.13 GiB
Duration : 1 h 30 min
Overall bit rate : 3 389 kb/s
Movie name : Terra Willy Planete inconnue (2019) [erzsebet.org.org]
Encoded date : UTC 2019-09-10 19:34:17
Writing application : mkvmerge v34.0.0 ('Sight and Seen') 64-bit
Writing library : libebml v1.3.7 + libmatroska v1.5.0
Video
ID : 1
Format : AVC
Format/Info : Advanced Video Codec
Format profile : [email protected]
Format settings : CABAC / 11 Ref Frames
Format settings, CABAC : Yes
Format settings, Reference frames : 11 frames
Codec ID : V_MPEG4/ISO/AVC
Duration : 1 h 30 min
Bit rate : 2 555 kb/s
Width : 1 088 pixels
Height : 456 pixels
Display aspect ratio : 2.40:1
Frame rate mode : Constant
Frame rate : 24.000 FPS
Color space : YUV
Chroma subsampling : 4:2:0
Bit depth : 8 bits
Scan type : Progressive
Bits/(Pixel*Frame) : 0.215
Stream size : 1.61 GiB (75%)
Title : Terra Willy Planete inconnue (2019) [erzsebet.org.org]
Writing library : x264 core 157 r2969 d4099dd
Encoding settings : cabac=1 / ref=11 / deblock=1:-3:-2 / analyse=0x3:0x133 / me=umh / subme=11 / psy=1 / psy_rd=1.00:0.05 / mixed_ref=1 / me_range=48 / chroma_me=1 / trellis=2 / 8x8dct=1 / cqm=0 / deadzone=21,11 / fast_pskip=0 / chroma_qp_offset=-3 / threads=12 / lookahead_threads=2 / sliced_threads=0 / nr=0 / decimate=1 / interlaced=0 / bluray_compat=0 / constrained_intra=0 / bframes=8 / b_pyramid=2 / b_adapt=2 / b_bias=0 / direct=3 / weightb=1 / open_gop=0 / weightp=2 / keyint=250 / keyint_min=23 / scenecut=40 / intra_refresh=0 / rc_lookahead=60 / rc=crf / mbtree=0 / crf=16.0 / qcomp=0.60 / qpmin=0 / qpmax=69 / qpstep=4 / vbv_maxrate=50000 / vbv_bufsize=62500 / crf_max=0.0 / nal_hrd=none / filler=0 / ip_ratio=1.40 / pb_ratio=1.30 / aq=3:0.90
Language : French
Default : Yes
Forced : No
Audio #1
ID : 2
Format : AC-3
Format/Info : Audio Coding 3
Commercial name : Dolby Digital
Codec ID : A_AC3
Duration : 1 h 30 min
Bit rate mode : Constant
Bit rate : 384 kb/s
Channel(s) : 6 channels
Channel layout : L R C LFE Ls Rs
Sampling rate : 48.0 kHz
Frame rate : 31.250 FPS (1536 SPF)
Bit depth : 16 bits
Compression mode : Lossy
Stream size : 247 MiB (11%)
Title : DUB (iTunes)
Language : Russian
Service kind : Complete Main
Default : Yes
Forced : No
Audio #2
ID : 3
Format : AC-3
Format/Info : Audio Coding 3
Commercial name : Dolby Digital
Codec ID : A_AC3
Duration : 1 h 30 min
Bit rate mode : Constant
Bit rate : 448 kb/s
Channel(s) : 6 channels
Channel layout : L R C LFE Ls Rs
Sampling rate : 48.0 kHz
Frame rate : 31.250 FPS (1536 SPF)
Bit depth : 16 bits
Compression mode : Lossy
Stream size : 289 MiB (13%)
Language : English
Service kind : Complete Main
Default : No
Forced : No
Text
ID : 4
Format : UTF-8
Codec ID : S_TEXT/UTF8
Codec ID/Info : UTF-8 Plain Text
Duration : 1 h 23 min
Bit rate : 32 b/s
Count of elements : 798
Stream size : 19.7 KiB (0%)
Title : Full
Language : English
Default : No
Forced : No
Menu
00:00:00.000 : it:00:00:00.000
00:04:20.417 : it:00:04:20.417
00:07:44.417 : it:00:07:44.417
00:11:54.083 : it:00:11:54.083
00:16:28.208 : it:00:16:28.208
00:21:05.458 : it:00:21:05.458
00:25:25.750 : it:00:25:25.750
00:29:45.083 : it:00:29:45.083
00:34:37.250 : it:00:34:37.250
00:39:03.458 : it:00:39:03.458
00:43:16.417 : it:00:43:16.417
00:47:32.333 : it:00:47:32.333
00:51:55.417 : it:00:51:55.417
00:57:30.667 : it:00:57:30.667
01:01:45.208 : it:01:01:45.208
01:06:53.667 : it:01:06:53.667
01:11:19.042 : it:01:11:19.042
01:15:46.125 : it:01:15:46.125
01:20:40.667 : it:01:20:40.667
01:26:54.875 : it:01:26:54.875

Скриншоты



[erzsebet.org].t2924561.torrent
Торрент: Зарегистрирован [ 2020-06-30 10:49 ]

Скачать .torrent

Скачать

11 KB

Статус: проверено
Скачан: 0 раз
Размер: 2.13 GB
Поблагодарили: 0  Спасибо
terms.php
[Профиль]  [ЛС] 
Показать сообщения:    
Ответить на тему

Текущее время: 11-Июл 00:07

Часовой пояс: UTC + 3



Вы не можете начинать темы
Вы не можете отвечать на сообщения
Вы не можете редактировать свои сообщения
Вы не можете удалять свои сообщения
Вы не можете голосовать в опросах
Вы не можете прикреплять файлы к сообщениям
Вы можете скачивать файлы