Король Лев / The Lion King (Джон Фавро / Jon Favreau) [2019, США, мультфильм, мюзикл, драма, приключения, семейный, BDRip] Dub (iTunes) + Sub (Rus, Eng) + Original Eng

Ответить на тему
Статистика раздачи
Размер:  2.18 GB   |    Зарегистрирован:  10 дней   |    Скачан:  0 раз
Сидов:  1   Личеров:  1  
 
 
Автор Сообщение

erzsebet ®

Стаж: 18 лет

Сообщений: 470810

Откуда: Венгрия

Создавать темы 30-Июн-2020 10:49  |  Сменить автора

[Цитировать] 

Король Лев / The Lion King
Страна: США
Жанр: мультфильм, мюзикл, драма, приключения, семейный
Год выпуска: 2019
Продолжительность: 01:58:15-Перевод: Профессиональный (дублированный) | iTunes
Субтитры: русские, английские
Оригинальная аудиодорожка: английский-Режиссер:
Джон Фавро / Jon Favreau-В ролях:
Джеймс Эрл Джонс, Дональд Гловер, Чиветель Эджиофор, Джон Оливер, Джон Кани, Элфри Вудард, Джейдон Маккрэри, Шахади Райт Джозеф, Пенни Джонсон, Кигэн-Майкл Ки-Описание:
История об отважном львенке по имени Симба. Знакомые с детства герои взрослеют, влюбляются, познают себя и окружающий мир, совершают ошибки и делают правильный выбор.- -Качество видео: BDRip | The.Lion.King.2019.BDREMUX.1080p.seleZen
Формат видео: AVI
Видео: 720x400 (1.80:1), 23.976 fps, XviD build 73 ~1860 kbps avg, 0.27 bit/pixel
Аудио 1: 48 kHz, AC3 Dolby Digital, 3/2 (L,C,R,l,r) + LFE ch, ~384 kbps | RUS
Аудио 2: 48 kHz, AC3 Dolby Digital, 3/2 (L,C,R,l,r) + LFE ch, ~384 kbps | ENG-[box]Сэмпл[/box]-

MediaInfo

Код:
Формат : AVI
Формат/Информация : Audio Video Interleave
Профиль формата : OpenDML
Размер файла : 2,18 Гбайт
Продолжительность : 1 ч. 58 м.
Общий поток : 2635 Кбит/сек
Название фильма : Король Лев_2019_BDRip
Программа кодирования : VirtualDubMod 1.5.10.3 | www.virtualdub-fr.org || (build 2550/release)
Авторское право : порошков
Видео
Идентификатор : 0
Формат : MPEG-4 Visual
Профиль формата : Advanced [email protected]
Настройки формата : BVOP1 / Custom Matrix
Параметр BVOP формата : 1
Параметр QPel формата : Нет
Параметр GMC формата : Без точки перехода
Параметр матрицы формата : Выборочная
Идентификатор кодека : XVID
Идентификатор кодека/Подсказка : XviD
Продолжительность : 1 ч. 58 м.
Битрейт : 1850 Кбит/сек
Ширина : 720 пикселей
Высота : 400 пикселей
Соотношение сторон : 16:9
Частота кадров : 23,976 (24000/1001) кадра/сек
Цветовое пространство : YUV
Субдискретизация насыщенности : 4:2:0
Битовая глубина : 8 бит
Тип развёртки : Прогрессивная
Метод сжатия : С потерями
Бит/(Пиксели*Кадры) : 0.268
Размер потока : 1,53 Гбайт (70%)
Библиотека кодирования : XviD 73
Аудио #1
Идентификатор : 1
Формат : AC-3
Формат/Информация : Audio Coding 3
Коммерческое название : Dolby Digital
Идентификатор кодека : 2000
Продолжительность : 1 ч. 58 м.
Вид битрейта : Постоянный
Битрейт : 384 Кбит/сек
Каналы : 6 каналов
ChannelLayout : L R C LFE Ls Rs
Частота : 48,0 КГц
Частота кадров : 31,250 кадров/сек (1536 SPF)
Метод сжатия : С потерями
Размер потока : 325 Мбайт (15%)
Выравнивание : Разделение по промежуткам
Продолжительность промежутка : 42 мс. (1,00 видеокадр)
Время предзагрузки промежутка : 500 мс.
Заголовок : Rus
ServiceKind/String : Complete Main
Аудио #2
Идентификатор : 2
Формат : AC-3
Формат/Информация : Audio Coding 3
Коммерческое название : Dolby Digital
Идентификатор кодека : 2000
Продолжительность : 1 ч. 58 м.
Вид битрейта : Постоянный
Битрейт : 384 Кбит/сек
Каналы : 6 каналов
ChannelLayout : L R C LFE Ls Rs
Частота : 48,0 КГц
Частота кадров : 31,250 кадров/сек (1536 SPF)
Метод сжатия : С потерями
Размер потока : 325 Мбайт (15%)
Выравнивание : Разделение по промежуткам
Продолжительность промежутка : 42 мс. (1,00 видеокадр)
Время предзагрузки промежутка : 500 мс.
Заголовок : Eng
ServiceKind/String : Complete Main

Скриншоты


[erzsebet.org].t2924562.torrent
Торрент: Зарегистрирован [ 2020-06-30 10:49 ]

Скачать .torrent

Скачать

12 KB

Статус: проверено
Скачан: 0 раз
Размер: 2.18 GB
Поблагодарили: 0  Спасибо
terms.php
Связанные раздачи
Добавлен Темы Размер S / L Ссылка
08-Апр-20 09:22 Король Лев в 3Д / The Lion King 3D (Джон Фавро / Jon Favreau) [2019, мультфильм, мюзикл, драма, приключения, семейный, BDRemux, 1080p] BD3DОтв. 0 40.63 GB | Скачать .torrent
08-Апр-20 09:22 Король Лев в 3Д / The Lion King 3D (Джон Фавро / Jon Favreau) [2019, Мультфильм, мюзикл, драма, приключения, семейный, ремейк, BDRemux, 1080p] BD3DОтв. 0 34.8 GB | Скачать .torrent
08-Апр-20 09:21 Король Лев в 3Д / The Lion King 3D (Джон Фавро / Jon Favreau) [2019, мультфильм, мюзикл, драма, приключения, семейный, BDRip] Half OverUnder / Вертикальная анаморфная стереопараОтв. 0 11.54 GB | Скачать .torrent
08-Апр-20 09:21 Король Лев в 3Д / The Lion King 3D (Джон Фавро / Jon Favreau) [2019, Мультфильм, мюзикл, драма, приключения, семейный, ремейк, BDRip, 1080p] OverUnder / Вертикальная стереопара (лицензия)Отв. 0 21.18 GB | Скачать .torrent
[Профиль]  [ЛС] 
Показать сообщения:    
Ответить на тему

Текущее время: 11-Июл 01:51

Часовой пояс: UTC + 3



Вы не можете начинать темы
Вы не можете отвечать на сообщения
Вы не можете редактировать свои сообщения
Вы не можете удалять свои сообщения
Вы не можете голосовать в опросах
Вы не можете прикреплять файлы к сообщениям
Вы можете скачивать файлы