UglyDolls. Куклы с характером / UglyDolls (Келли Эсбёри / Kelly Asbury) [2019, Китай, Канада, США, мультфильм, мюзикл, фэнтези, комедия, приключения, семейный, BDRip-AVC] Dub (iTunes RUS, UKR) + Sub (Rus, Eng) + Original

Ответить на тему
Статистика раздачи
Размер:  2.78 GB   |    Зарегистрирован:  11 дней   |    Скачан:  0 раз
Сидов:  1   Личеров:  1  
 
 
Автор Сообщение

erzsebet ®

Стаж: 18 лет

Сообщений: 471259

Откуда: Венгрия

Создавать темы 30-Июн-2020 10:49  |  Сменить автора

[Цитировать] 

UglyDolls. Куклы с характером / UglyDolls«Милота - страшная сила!»- Страна: Китай, Канада, США
Жанр: мультфильм, мюзикл, фэнтези, комедия, приключения, семейный
Production Co: STX Entertainment, Alibaba Pictures, Reel FX Animation Studios
Год выпуска: 2019
Продолжительность: 01:27:50-Перевод: Профессиональный (дублированный) | iTunes RUS, UKR
Субтитры: Rus (Full), Eng (Full SDH)
Оригинальная аудиодорожка: Eng-Режиссер: Келли Эсбёри / Kelly Asbury-В ролях: Келли Кларксон, Ник Джонас, Жанель Моне, Блейк Шелтон, Питбуль, Габриэль Иглесиас, Ванда Сайкс, Ван Лихом, Charli XCX, Биби Рекса--Описание:Добро пожаловать в Агливилль! В этом удивительном месте всё необычное считается необыкновенным, а красота - не всегда то, что подвластно взору. Здесь живет милашка Мокси со своими странными друзьями. Однажды они вместе отправляются в невероятное путешествие, во время которого им предстоит проявить свой характер и понять, что самое главное - в любой ситуации оставаться собой...-релиз:

IMDb: 4.80 (3268)
Sample-Качество видео: BDRip-AVC | UglyDolls.2019.1080p.BDRemux.NNMClub
Формат видео: MKV
Видео: AVC 3310 kb/s 1088 x 588 (1.850) 23.976 fps
Аудио 1: AC-3 384 kb/s 6 channels, 48.0 kHz RUS DUB iTunes
Аудио 2: AC-3 384 kb/s 6 channels, 48.0 kHz UKR DUB iTunes
Аудио 3: AC-3 448 kb/s 6 channels, 48.0 kHz ENG

MediaInfo | Log

Log

x264 [info]: frame I:1364 Avg QP:13.78 size:121343
x264 [info]: frame P:31889 Avg QP:15.14 size: 33408
x264 [info]: frame B:93112 Avg QP:18.03 size: 10201
x264 [info]: consecutive B-frames: 3.2% 3.6% 18.3% 30.5% 15.7% 19.5% 3.5% 2.7% 2.9%
x264 [info]: mb I I16..4: 12.0% 58.8% 29.2%
x264 [info]: mb P I16..4: 1.3% 10.0% 2.1% P16..4: 25.0% 27.3% 13.4% 3.6% 0.7% skip:16.5%
x264 [info]: mb B I16..4: 0.3% 1.3% 0.3% B16..8: 25.6% 17.1% 3.8% direct: 4.7% skip:46.8% L0:41.8% L1:42.4% BI:15.8%
x264 [info]: 8x8 transform intra:70.4% inter:47.7%
x264 [info]: direct mvs spatial:99.8% temporal:0.2%
x264 [info]: coded y,uvDC,uvAC intra: 86.3% 91.2% 80.8% inter: 17.4% 19.5% 9.7%
x264 [info]: i16 v,h,dc,p: 34% 12% 7% 47%
x264 [info]: i8 v,h,dc,ddl,ddr,vr,hd,vl,hu: 9% 10% 9% 9% 12% 11% 12% 12% 14%
x264 [info]: i4 v,h,dc,ddl,ddr,vr,hd,vl,hu: 10% 10% 7% 9% 15% 13% 13% 11% 13%
x264 [info]: i8c dc,h,v,p: 41% 25% 16% 18%
x264 [info]: Weighted P-Frames: Y:3.6% UV:2.8%
x264 [info]: ref P L0: 51.3% 8.2% 15.3% 7.0% 4.8% 3.5% 3.2% 1.8% 1.7% 1.5% 1.6% 0.1% 0.0%
x264 [info]: ref B L0: 71.5% 11.2% 5.9% 3.6% 2.3% 1.8% 1.6% 1.0% 0.8% 0.3%
x264 [info]: ref B L1: 94.5% 5.5%
x264 [info]: kb/s:3310.05
x264 [total]: encoded 126365 frames, 15.03 fps, 3310.05 kb/s
Format : Matroska
Format version : Version 4
File size : 2.78 GiB
Duration : 1 h 27 min
Overall bit rate : 4 529 kb/s
Movie name : UglyDolls (2019) [erzsebet.org.org]
Encoded date : UTC 2019-10-15 21:57:39
Writing application : mkvmerge v8.2.0 ('World of Adventure') 64bit
Writing library : libebml v1.3.1 + libmatroska v1.4.2
Video
ID : 1
Format : AVC
Format/Info : Advanced Video Codec
Format profile : [email protected]
Format settings : CABAC / 11 Ref Frames
Format settings, CABAC : Yes
Format settings, Reference frames : 11 frames
Codec ID : V_MPEG4/ISO/AVC
Duration : 1 h 27 min
Bit rate : 3 310 kb/s
Width : 1 088 pixels
Height : 588 pixels
Display aspect ratio : 1.85:1
Frame rate mode : Constant
Frame rate : 23.976 (24000/1001) FPS
Color space : YUV
Chroma subsampling : 4:2:0
Bit depth : 8 bits
Scan type : Progressive
Bits/(Pixel*Frame) : 0.216
Stream size : 2.03 GiB (73%)
Title : UglyDolls (2019) [erzsebet.org.org]
Writing library : x264 core 157 r2969 d4099dd
Encoding settings : cabac=1 / ref=11 / deblock=1:-3:-2 / analyse=0x3:0x133 / me=umh / subme=11 / psy=1 / psy_rd=1.00:0.05 / mixed_ref=1 / me_range=48 / chroma_me=1 / trellis=2 / 8x8dct=1 / cqm=0 / deadzone=21,11 / fast_pskip=0 / chroma_qp_offset=-3 / threads=12 / lookahead_threads=2 / sliced_threads=0 / nr=0 / decimate=1 / interlaced=0 / bluray_compat=0 / constrained_intra=0 / bframes=8 / b_pyramid=2 / b_adapt=2 / b_bias=0 / direct=3 / weightb=1 / open_gop=0 / weightp=2 / keyint=250 / keyint_min=23 / scenecut=40 / intra_refresh=0 / rc_lookahead=60 / rc=crf / mbtree=0 / crf=16.7 / qcomp=0.60 / qpmin=0 / qpmax=69 / qpstep=4 / vbv_maxrate=50000 / vbv_bufsize=62500 / crf_max=0.0 / nal_hrd=none / filler=0 / ip_ratio=1.40 / pb_ratio=1.30 / aq=3:0.90
Language : English
Default : Yes
Forced : No
Audio #1
ID : 2
Format : AC-3
Format/Info : Audio Coding 3
Commercial name : Dolby Digital
Codec ID : A_AC3
Duration : 1 h 27 min
Bit rate mode : Constant
Bit rate : 384 kb/s
Channel(s) : 6 channels
Channel layout : L R C LFE Ls Rs
Sampling rate : 48.0 kHz
Frame rate : 31.250 FPS (1536 SPF)
Bit depth : 16 bits
Compression mode : Lossy
Stream size : 241 MiB (8%)
Title : DUB (iTunes)
Language : Russian
Service kind : Complete Main
Default : Yes
Forced : No
Audio #2
ID : 3
Format : AC-3
Format/Info : Audio Coding 3
Commercial name : Dolby Digital
Codec ID : A_AC3
Duration : 1 h 27 min
Bit rate mode : Constant
Bit rate : 384 kb/s
Channel(s) : 6 channels
Channel layout : L R C LFE Ls Rs
Sampling rate : 48.0 kHz
Frame rate : 31.250 FPS (1536 SPF)
Bit depth : 16 bits
Compression mode : Lossy
Stream size : 241 MiB (8%)
Title : DUB (iTunes)
Language : Ukrainian
Service kind : Complete Main
Default : No
Forced : No
Audio #3
ID : 4
Format : AC-3
Format/Info : Audio Coding 3
Commercial name : Dolby Digital
Codec ID : A_AC3
Duration : 1 h 27 min
Bit rate mode : Constant
Bit rate : 448 kb/s
Channel(s) : 6 channels
Channel layout : L R C LFE Ls Rs
Sampling rate : 48.0 kHz
Frame rate : 31.250 FPS (1536 SPF)
Bit depth : 16 bits
Compression mode : Lossy
Stream size : 281 MiB (10%)
Title : Original
Language : English
Service kind : Complete Main
Default : No
Forced : No
Text #1
ID : 5
Format : UTF-8
Codec ID : S_TEXT/UTF8
Codec ID/Info : UTF-8 Plain Text
Duration : 1 h 16 min
Bit rate : 112 b/s
Count of elements : 1248
Stream size : 62.9 KiB (0%)
Title : Full
Language : Russian
Default : No
Forced : No
Text #2
ID : 6
Format : UTF-8
Codec ID : S_TEXT/UTF8
Codec ID/Info : UTF-8 Plain Text
Duration : 1 h 24 min
Bit rate : 80 b/s
Count of elements : 1414
Stream size : 49.4 KiB (0%)
Title : Full
Language : English
Default : No
Forced : No
Text #3
ID : 7
Format : UTF-8
Codec ID : S_TEXT/UTF8
Codec ID/Info : UTF-8 Plain Text
Duration : 1 h 26 min
Bit rate : 85 b/s
Count of elements : 1535
Stream size : 54.0 KiB (0%)
Title : SDH
Language : English
Default : No
Forced : No
Menu
00:00:00.000 : :Chapter 1
00:05:31.331 : :Chapter 2
00:09:12.260 : :Chapter 3
00:14:14.145 : :Chapter 4
00:18:58.304 : :Chapter 5
00:21:17.234 : :Chapter 6
00:25:28.152 : :Chapter 7
00:29:24.680 : :Chapter 8
00:32:01.128 : :Chapter 9
00:34:52.465 : :Chapter 10
00:40:21.919 : :Chapter 11
00:44:45.099 : :Chapter 12
00:51:15.739 : :Chapter 13
00:55:46.969 : :Chapter 14
00:59:33.904 : :Chapter 15
01:02:04.554 : :Chapter 16
01:07:05.063 : :Chapter 17
01:12:36.852 : :Chapter 18
01:16:31.128 : :Chapter 19
01:19:44.863 : :Chapter 20

Скриншоты




[erzsebet.org].t2924563.torrent
Торрент: Зарегистрирован [ 2020-06-30 10:49 ]

Скачать .torrent

Скачать

14 KB

Статус: проверено
Скачан: 0 раз
Размер: 2.78 GB
Поблагодарили: 0  Спасибо
terms.php
Связанные раздачи
Добавлен Темы Размер S / L Ссылка
30-Май-20 15:14 UglyDolls. Куклы с характером / UglyDolls (Келли Эсбёри) [2019 г., Мультфильм, мюзикл, фэнтези, комедия, приключения, семейный, BDRip] DUB | iTunesОтв. 0 1.42 GB | Скачать .torrent
30-Май-20 15:02 UglyDolls. Куклы с характером / UglyDolls (Келли Эсбёри) [2019 г., Мультфильм, мюзикл, фэнтези, комедия, приключения, семейный, BDRip 1080p] DUB | iTunesОтв. 0 9.63 GB | Скачать .torrent
30-Май-20 15:02 UglyDolls. Куклы с характером / UglyDolls (Келли Эсбёри) [2019 г., мультфильм, мюзикл, фэнтези, комедия, приключения, семейный, BDRip 720p] DUB | iTunesОтв. 0 3.72 GB | Скачать .torrent
17-Янв-20 23:42 UglyDolls. Куклы с характером / UglyDolls (Келли Эсбёри / Kelly Asbury) [2019, Китай, Канада, США, мультфильм, мюзикл, фэнтези, комедия, семейный, BDRip 1080] Dub (iTunes RUS, UKR) + Sub (Rus, Eng) + OriginalОтв. 0 9.43 GB | Скачать .torrent
[Профиль]  [ЛС] 
Показать сообщения:    
Ответить на тему

Текущее время: 12-Июл 03:14

Часовой пояс: UTC + 3



Вы не можете начинать темы
Вы не можете отвечать на сообщения
Вы не можете редактировать свои сообщения
Вы не можете удалять свои сообщения
Вы не можете голосовать в опросах
Вы не можете прикреплять файлы к сообщениям
Вы можете скачивать файлы