История игрушек 4 / Toy Story 4 (Джош Кули / Josh Cooley) [2019, США, мультфильм, фэнтези, комедия, семейный, BDRip-AVC] Dub (iTunes) + Sub Rus, Eng + Original Eng

Ответить на тему
Статистика раздачи
Размер:  2.76 GB   |    Зарегистрирован:  11 дней   |    Скачан:  0 раз
Сидов:  1   Личеров:  1  
 
 
Автор Сообщение

erzsebet ®

Стаж: 18 лет

Сообщений: 471164

Откуда: Венгрия

Создавать темы 30-Июн-2020 10:49  |  Сменить автора

[Цитировать] 

История игрушек 4 | Toy Story 4«Собирайтесь в дорогу»- Страна: США
Производство: Walt Disney Pictures, Pixar Animation Studios
Год выпуска: 2019
Жанр: мультфильм, фэнтези, комедия, приключения, семейный
Продолжительность: 01:40:03
Перевод: Профессиональный, дублированный (iTunes)
Субтитры: Rus (Full, SDH), Eng (Full, SDH)
Оригинальная аудиодорожка: английский
Режиссер: Джош Кули / Josh Cooley
Роли озвучивали: Том Хэнкс, Тим Аллен, Энни Поттс, Тони Хейл, Кигэн-Майкл Ки, Киану Ривз, Элли Маки-Описание:Космический рейнджер Баз Лайтер, ковбой Вуди, собака Спиралька, тиранозавр Рекс и вся команда игрушек снова вместе, и они как никогда готовы к приключениям. С тех пор как Энди поступил в колледж, игрушки поселились в доме своей новой хозяйки Бонни. В свой первый день в школе Бонни смастерила себе из отходов новую игрушку Вилкинса, что положит начало череде событий, в которой найдется место и путешествиям с погонями, и знакомству с новыми игрушками, и встречам с некоторыми из старых друзей, и даже романтической истории...-
«Исто́рия игру́шек 4» (англ. Toy Story 4) — американский 3D-комедийный мультфильм. Этот фильм стал заключительной частью в серии История игрушек. Производством занималась анимационная студия Pixar, дистрибьютором выступила компания Walt Disney Pictures-Релиз:


IMDb: 8.10 (102 513)
Sample-Тип релиза: BDRip-AVC | Toy Story 4 2019 1080p Blu-ray Remux AVC Atmos - KRaLiMaRKo
Контейнер: MKV
Видео: AVC 3121 kb/s 1104 x 462 (2.390) 23.976 fps
Аудио 1: AC-3 384 kb/s 6 channels, 48.0 kHz | RUS (iTunes)
Аудио 2: AC-3 448 kb/s 6 channels, 48.0 kHz | ENG
Формат субтитров: softsub (SRT)

MediaInfo | Log

Log

x264 [info]: frame I:1448 Avg QP:14.20 size: 98387
x264 [info]: frame P:31069 Avg QP:16.08 size: 34628
x264 [info]: frame B:111422 Avg QP:17.76 size: 10087
x264 [info]: consecutive B-frames: 2.5% 2.1% 6.9% 22.2% 16.8% 38.4% 6.2% 1.6% 1.7% 1.7%
x264 [info]: mb I I16..4: 11.0% 66.7% 22.3%
x264 [info]: mb P I16..4: 0.4% 12.4% 1.7% P16..4: 24.8% 32.6% 17.3% 4.3% 0.5% skip: 6.1%
x264 [info]: mb B I16..4: 0.0% 1.2% 0.2% B16..8: 28.1% 24.3% 6.2% direct: 6.0% skip:34.0% L0:44.1% L1:40.2% BI:15.7%
x264 [info]: 8x8 transform intra:81.6% inter:45.3%
x264 [info]: direct mvs spatial:99.9% temporal:0.1%
x264 [info]: coded y,uvDC,uvAC intra: 96.9% 95.8% 89.7% inter: 27.2% 23.6% 11.0%
x264 [info]: i16 v,h,dc,p: 13% 7% 21% 59%
x264 [info]: i8 v,h,dc,ddl,ddr,vr,hd,vl,hu: 10% 10% 11% 9% 12% 11% 12% 11% 14%
x264 [info]: i4 v,h,dc,ddl,ddr,vr,hd,vl,hu: 10% 9% 4% 9% 15% 14% 14% 11% 14%
x264 [info]: i8c dc,h,v,p: 49% 20% 15% 16%
x264 [info]: Weighted P-Frames: Y:5.1% UV:3.2%
x264 [info]: ref P L0: 46.7% 9.8% 17.3% 6.4% 5.6% 3.4% 3.9% 2.0% 1.9% 1.4% 1.5% 0.1% 0.0%
x264 [info]: ref B L0: 70.3% 11.3% 5.9% 3.4% 2.4% 2.0% 2.3% 1.3% 0.7% 0.3%
x264 [info]: ref B L1: 94.8% 5.2%
x264 [info]: kb/s:3121.20
x264 [total]: encoded 143939 frames, 15.53 fps, 3121.20 kb/s
Format : Matroska
Format version : Version 4
File size : 2.76 GiB
Duration : 1 h 40 min
Overall bit rate : 3 954 kb/s
Movie name : Toy Story 4 (2019).AVC. [erzsebet.org.org]
Encoded date : UTC 2019-10-04 15:12:49
Writing application : mkvmerge v8.2.0 ('World of Adventure') 64bit
Writing library : libebml v1.3.1 + libmatroska v1.4.2
Video
ID : 1
Format : AVC
Format/Info : Advanced Video Codec
Format profile : [email protected]
Format settings : CABAC / 11 Ref Frames
Format settings, CABAC : Yes
Format settings, Reference frames : 11 frames
Codec ID : V_MPEG4/ISO/AVC
Duration : 1 h 40 min
Bit rate : 3 121 kb/s
Width : 1 104 pixels
Height : 462 pixels
Display aspect ratio : 2.40:1
Frame rate mode : Constant
Frame rate : 23.976 (24000/1001) FPS
Color space : YUV
Chroma subsampling : 4:2:0
Bit depth : 8 bits
Scan type : Progressive
Bits/(Pixel*Frame) : 0.255
Stream size : 2.18 GiB (79%)
Title : Toy Story 4 (2019).AVC. [erzsebet.org.org]
Writing library : x264 core 157 r2969 d4099dd
Encoding settings : cabac=1 / ref=11 / deblock=1:-3:-2 / analyse=0x3:0x133 / me=umh / subme=11 / psy=1 / psy_rd=1.00:0.05 / mixed_ref=1 / me_range=48 / chroma_me=1 / trellis=2 / 8x8dct=1 / cqm=0 / deadzone=21,11 / fast_pskip=0 / chroma_qp_offset=-3 / threads=12 / lookahead_threads=2 / sliced_threads=0 / nr=0 / decimate=1 / interlaced=0 / bluray_compat=0 / constrained_intra=0 / bframes=9 / b_pyramid=2 / b_adapt=2 / b_bias=0 / direct=3 / weightb=1 / open_gop=0 / weightp=2 / keyint=250 / keyint_min=23 / scenecut=40 / intra_refresh=0 / rc_lookahead=60 / rc=crf / mbtree=0 / crf=16.4 / qcomp=0.60 / qpmin=0 / qpmax=69 / qpstep=4 / vbv_maxrate=50000 / vbv_bufsize=62500 / crf_max=0.0 / nal_hrd=none / filler=0 / ip_ratio=1.40 / pb_ratio=1.30 / aq=3:0.90
Language : English
Default : Yes
Forced : No
Audio #1
ID : 2
Format : AC-3
Format/Info : Audio Coding 3
Commercial name : Dolby Digital
Codec ID : A_AC3
Duration : 1 h 40 min
Bit rate mode : Constant
Bit rate : 384 kb/s
Channel(s) : 6 channels
Channel layout : L R C LFE Ls Rs
Sampling rate : 48.0 kHz
Frame rate : 31.250 FPS (1536 SPF)
Bit depth : 16 bits
Compression mode : Lossy
Stream size : 275 MiB (10%)
Title : DUB [iTunes]
Language : Russian
Service kind : Complete Main
Default : Yes
Forced : No
Audio #2
ID : 3
Format : AC-3
Format/Info : Audio Coding 3
Commercial name : Dolby Digital
Codec ID : A_AC3
Duration : 1 h 40 min
Bit rate mode : Constant
Bit rate : 448 kb/s
Channel(s) : 6 channels
Channel layout : L R C LFE Ls Rs
Sampling rate : 48.0 kHz
Frame rate : 31.250 FPS (1536 SPF)
Bit depth : 16 bits
Compression mode : Lossy
Stream size : 321 MiB (11%)
Title : Original
Language : English
Service kind : Complete Main
Default : No
Forced : No
Text #1
ID : 4
Format : UTF-8
Codec ID : S_TEXT/UTF8
Codec ID/Info : UTF-8 Plain Text
Duration : 1 h 39 min
Bit rate : 106 b/s
Count of elements : 1656
Stream size : 77.2 KiB (0%)
Title : Full
Language : Russian
Default : No
Forced : No
Text #2
ID : 5
Format : UTF-8
Codec ID : S_TEXT/UTF8
Codec ID/Info : UTF-8 Plain Text
Duration : 1 h 39 min
Bit rate : 121 b/s
Count of elements : 2039
Stream size : 88.7 KiB (0%)
Title : SDH
Language : Russian
Default : No
Forced : No
Text #3
ID : 6
Format : UTF-8
Codec ID : S_TEXT/UTF8
Codec ID/Info : UTF-8 Plain Text
Duration : 1 h 39 min
Bit rate : 63 b/s
Count of elements : 1806
Stream size : 46.3 KiB (0%)
Title : Full
Language : English
Default : No
Forced : No
Text #4
ID : 7
Format : UTF-8
Codec ID : S_TEXT/UTF8
Codec ID/Info : UTF-8 Plain Text
Duration : 1 h 39 min
Bit rate : 76 b/s
Count of elements : 2062
Stream size : 55.5 KiB (0%)
Title : SDH
Language : English
Default : No
Forced : No
Menu
00:00:00.000 : en:Chapter 01
00:05:39.672 : en:Chapter 02
00:11:21.097 : en:Chapter 03
00:15:06.238 : en:Chapter 04
00:19:01.098 : en:Chapter 05
00:20:52.042 : en:Chapter 06
00:22:43.820 : en:Chapter 07
00:26:11.111 : en:Chapter 08
00:27:47.082 : en:Chapter 09
00:32:11.846 : en:Chapter 10
00:36:17.425 : en:Chapter 11
00:40:34.640 : en:Chapter 12
00:42:56.699 : en:Chapter 13
00:44:26.872 : en:Chapter 14
00:46:39.379 : en:Chapter 15
00:48:05.966 : en:Chapter 16
00:49:18.664 : en:Chapter 17
00:52:25.809 : en:Chapter 18
00:53:58.568 : en:Chapter 19
00:54:34.479 : en:Chapter 20
00:59:06.960 : en:Chapter 21
01:01:30.645 : en:Chapter 22
01:04:40.751 : en:Chapter 23
01:07:25.249 : en:Chapter 24
01:09:31.000 : en:Chapter 25
01:10:54.750 : en:Chapter 26
01:12:05.154 : en:Chapter 27
01:15:02.706 : en:Chapter 28
01:17:29.770 : en:Chapter 29
01:18:04.846 : en:Chapter 30
01:19:21.548 : en:Chapter 31
01:19:48.116 : en:Chapter 32
01:22:24.940 : en:Chapter 33
01:28:59.959 : en:Chapter 34

Скриншоты




[erzsebet.org].t2924564.torrent
Торрент: Зарегистрирован [ 2020-06-30 10:49 ]

Скачать .torrent

Скачать

14 KB

Статус: проверено
Скачан: 0 раз
Размер: 2.76 GB
Поблагодарили: 0  Спасибо
terms.php
Связанные раздачи
Добавлен Темы Размер S / L Ссылка
30-Июн-20 10:49 История игрушек 4 / Toy Story 4 (Джош Кули / Josh Cooley) [2019, США, мультфильм, фэнтези, комедия, приключения, семейный, BDRip] Dub (iTunes)Отв. 0 1.46 GB | Скачать .torrent
08-Апр-20 09:22 История игрушек 4 в 3Д / Toy Story 4 3D (Джош Кули / Josh Cooley) [2019, мультфильм, фэнтези, комедия, приключения, семейный, BDRip] Half OverUnder / Вертикальная анаморфная стереопараОтв. 0 9.38 GB | Скачать .torrent
14-Мар-20 07:29 [VIDEO43DS] История игрушек 4 в 3Д / Toy Story 4 3D [Джош Кули / Josh Cooley][2019, Мультфильм, Комедия, Приключения, Семейный, 240p MOFLEX]Отв. 0 1.21 GB | Скачать .torrent
28-Фев-20 16:24 История игрушек 4 / Toy Story 4 (Джош Кули / Josh Cooley) [2019, США, мультфильм, фэнтези, комедия, приключения, семейный, Blu-ray disc 1080p] [EUR] Dub + Sub Rus,Eng + Original EngОтв. 0 37.26 GB | Скачать .torrent
[Профиль]  [ЛС] 
Показать сообщения:    
Ответить на тему

Текущее время: 12-Июл 02:34

Часовой пояс: UTC + 3



Вы не можете начинать темы
Вы не можете отвечать на сообщения
Вы не можете редактировать свои сообщения
Вы не можете удалять свои сообщения
Вы не можете голосовать в опросах
Вы не можете прикреплять файлы к сообщениям
Вы можете скачивать файлы