Тролли. Мировой тур / Trolls World Tour (Уолт Дорн / Walt Dohrn, Дэвид П. Смит / David P. Smith) [2020, США, мультфильм, мюзикл, фэнтези, комедия, приключения, семейный, BDRip-AVC] Dub + Original (Eng) + Sub (Eng)

Ответить на тему
Статистика раздачи
Размер:  1.45 GB   |    Зарегистрирован:  11 дней   |    Скачан:  0 раз
Сидов:  1   Личеров:  1  
 
 
Автор Сообщение

erzsebet ®

Стаж: 18 лет

Сообщений: 471259

Откуда: Венгрия

Создавать темы 30-Июн-2020 10:49  |  Сменить автора

[Цитировать] 

Тролли. Мировой тур / Trolls World Tour
«Счастье будет всем!»
- Год выхода: 2020
Страна: США
Жанр: мультфильм, мюзикл, фэнтези, комедия, приключения, семейный
Продолжительность: 01:30:43
Перевод: Профессиональный (полное дублирование) Студия «Пифагор»
Субтитры: Английские (полные, SDH)
Оригинальная аудиодорожка: Английская
Навигация по главам: Есть (20 глав)-Режиссер:
Уолт Дорн / Walt Dohrn, Дэвид П. Смит / David P. Smith-В ролях:
Джастин Тимберлейк, Анна Кендрик, Джеймс Корден, Оззи Осборн, Рэйчел Блум, Андерсон Паак, Джордж Клинтон, Мэри Джей Блайдж, Келли Кларксон, Сэм Рокуэлл-О фильме:
Поп-тролли в шоке — оказывается, мир музыки гораздо больше, чем они думали. Рейвы, оупен-эйры, классические концерты и, конечно, хип-хоп баттлы — впереди их ждет головокружительное веселье.
Но неудержимая королева Рокс планирует уничтожить все… чтобы миром безоговорочно правил хард-рок!
Розочка, Цветан и их новые друзья отправляются в невероятное путешествие: им предстоит объединить всех троллей и помешать Рокс.-Релиз групп | | IMDB | КиноПоиск | Сэмпл |-Качество: BDRip-AVC [Trolls.World.Tour.2020.BDREMUX.1080p.seleZen]
Формат: MKV
Видео: 1054x448 (2,35:1), 23,976 fps, x264 ~1705 kbps avg, 0.151 bit/pixel
Аудио #1: 48 kHz, AC3 Dolby Digital, 3/2 (L,C,R,l,r) + LFE ch, ~384 kbps (RUS) - iTunes Russia
Аудио #2: 48 kHz, AC3 Dolby Digital, 2/0 (L,R) ch, ~192 kbps avg (ENG)
Формат субтитров: Softsub (.srt*)-

Скриншоты

-

MediaInfo

Код:Общее
Полное имя : F:\Trolls_World_Tour_2020_BDRip-AVC_iT_by_Dalemake.mkv
Формат : Matroska
Версия формата : Version 4
Размер файла : 1,45 Гбайт
Продолжительность : 1 ч. 30 м.
Общий поток : 2283 Кбит/сек
Название фильма : [Trolls_World_Tour_2020_All Films_Rutracker]
Дата кодирования : UTC 2020-06-30 05:52:25
Программа кодирования : mkvmerge v44.0.0 ('Domino') 64-bit
Библиотека кодирования : libebml v1.3.10 + libmatroska v1.5.2
Видео
Идентификатор : 1
Формат : AVC
Формат/Информация : Advanced Video Codec
Профиль формата : [email protected]
Настройки формата : CABAC / 11 Ref Frames
Параметр CABAC формата : Да
Параметр RefFrames формата : 11 кадров
Идентификатор кодека : V_MPEG4/ISO/AVC
Продолжительность : 1 ч. 30 м.
Битрейт : 1705 Кбит/сек
Ширина : 1054 пикселя
Высота : 448 пикселей
Соотношение сторон : 2,35:1
Режим частоты кадров : Постоянный
Частота кадров : 23,976 (24000/1001) кадра/сек
Частота кадров в оригинале : 23,976 (23976/1000) кадра/сек
Цветовое пространство : YUV
Субдискретизация насыщенности : 4:2:0
Битовая глубина : 8 бит
Тип развёртки : Прогрессивная
Бит/(Пиксели*Кадры) : 0.151
Размер потока : 1,08 Гбайт (75%)
Заголовок : [Trolls_World_Tour_2020_All Films_Rutracker]
Библиотека кодирования : x264 core 160 r3009 4c9b076
Настройки программы : cabac=1 / ref=11 / deblock=1:-2:-2 / analyse=0x3:0x133 / me=umh / subme=11 / psy=1 / psy_rd=1.00:0.10 / mixed_ref=1 / me_range=32 / chroma_me=1 / trellis=2 / 8x8dct=1 / cqm=0 / deadzone=21,11 / fast_pskip=0 / chroma_qp_offset=-3 / threads=6 / lookahead_threads=1 / sliced_threads=0 / nr=0 / decimate=1 / interlaced=0 / bluray_compat=0 / constrained_intra=0 / bframes=9 / b_pyramid=2 / b_adapt=2 / b_bias=0 / direct=3 / weightb=1 / open_gop=0 / weightp=2 / keyint=240 / keyint_min=23 / scenecut=40 / intra_refresh=0 / rc_lookahead=60 / rc=2pass / mbtree=0 / bitrate=1705 / ratetol=1.0 / qcomp=0.60 / qpmin=0 / qpmax=69 / qpstep=4 / cplxblur=20.0 / qblur=0.5 / vbv_maxrate=50000 / vbv_bufsize=62500 / nal_hrd=none / filler=0 / ip_ratio=1.40 / pb_ratio=1.30 / aq=1:1.00
Язык : English
Default : Да
Forced : Нет
Аудио #1
Идентификатор : 2
Формат : AC-3
Формат/Информация : Audio Coding 3
Коммерческое название : Dolby Digital
Идентификатор кодека : A_AC3
Продолжительность : 1 ч. 30 м.
Вид битрейта : Постоянный
Битрейт : 384 Кбит/сек
Каналы : 6 каналов
ChannelLayout : L R C LFE Ls Rs
Частота : 48,0 КГц
Частота кадров : 31,250 кадров/сек (1536 SPF)
Битовая глубина : 16 бит
Метод сжатия : С потерями
Размер потока : 249 Мбайт (17%)
Заголовок : Dub - iTunes Russia
Язык : Russian
ServiceKind/String : Complete Main
Default : Да
Forced : Нет
Аудио #2
Идентификатор : 3
Формат : AC-3
Формат/Информация : Audio Coding 3
Коммерческое название : Dolby Digital
Идентификатор кодека : A_AC3
Продолжительность : 1 ч. 30 м.
Вид битрейта : Постоянный
Битрейт : 192 Кбит/сек
Каналы : 2 канала
ChannelLayout : L R
Частота : 48,0 КГц
Частота кадров : 31,250 кадров/сек (1536 SPF)
Битовая глубина : 16 бит
Метод сжатия : С потерями
Размер потока : 125 Мбайт (8%)
Заголовок : Original
Язык : English
ServiceKind/String : Complete Main
Default : Нет
Forced : Нет
Текст #1
Идентификатор : 4
Формат : UTF-8
Идентификатор кодека : S_TEXT/UTF8
Идентификатор кодека/Информация : UTF-8 Plain Text
Продолжительность : 1 ч. 23 м.
Битрейт : 52 бит/сек
ElementCount : 1206
Размер потока : 32,2 Кбайт (0%)
Заголовок : Full
Язык : English
Default : Нет
Forced : Нет
Текст #2
Идентификатор : 5
Формат : UTF-8
Идентификатор кодека : S_TEXT/UTF8
Идентификатор кодека/Информация : UTF-8 Plain Text
Продолжительность : 1 ч. 30 м.
Битрейт : 93 бит/сек
ElementCount : 2109
Размер потока : 61,5 Кбайт (0%)
Заголовок : Full - SDH
Язык : English
Default : Нет
Forced : Нет
Меню
00:00:00.000 : en:Chapter 01
00:05:12.771 : en:Chapter 02
00:08:44.899 : en:Chapter 03
00:12:51.729 : en:Chapter 04
00:18:25.813 : en:Chapter 05
00:22:58.836 : en:Chapter 06
00:27:36.405 : en:Chapter 07
00:30:34.583 : en:Chapter 08
00:34:23.353 : en:Chapter 09
00:38:27.138 : en:Chapter 10
00:41:13.096 : en:Chapter 11
00:46:19.276 : en:Chapter 12
00:50:12.426 : en:Chapter 13
00:54:22.926 : en:Chapter 14
00:59:22.726 : en:Chapter 15
01:03:39.274 : en:Chapter 16
01:06:25.523 : en:Chapter 17
01:10:18.297 : en:Chapter 18
01:15:41.829 : en:Chapter 19
01:21:19.917 : en:Chapter 20
-
[erzsebet.org].t2924566.torrent
Торрент: Зарегистрирован [ 2020-06-30 10:49 ]

Скачать .torrent

Скачать

15 KB

Статус: проверено
Скачан: 0 раз
Размер: 1.45 GB
Поблагодарили: 0  Спасибо
terms.php
Связанные раздачи
Добавлен Темы Размер S / L Ссылка
30-Июн-20 10:49 Тролли. Мировой тур / Trolls World Tour (Уолт Дорн / Walt Dohrn, Дэвид П. Смит / David P. Smith) [2020, США, мультфильм, мюзикл, фэнтези, комедия, приключения, семейный, BDRip] DubОтв. 0 1.47 GB | Скачать .torrent
30-Июн-20 10:49 Тролли. Мировой тур / Trolls World Tour (Уолт Дорн / Walt Dohrn, Дэвид П. Смит / David P. Smith) [2020, США, мультфильм, мюзикл, фэнтези, комедия, приключения, семейный, BDRip-AVC] Dub + Original (Eng) + Sub (Eng)Отв. 0 2.27 GB | Скачать .torrent
24-Апр-20 03:51 Тролли. Мировой тур / Trolls World Tour (Уолт Дорн / Walt Dohrn, Дэвид П. Смит / David P. Smith) [2020, США, мультфильм, мюзикл, фэнтези, комедия, приключения,, WEB-DL 1080p] Dub (iTunes) + Sub Eng + Original EngОтв. 0 5.72 GB | Скачать .torrent
[Профиль]  [ЛС] 
Показать сообщения:    
Ответить на тему

Текущее время: 12-Июл 04:07

Часовой пояс: UTC + 3



Вы не можете начинать темы
Вы не можете отвечать на сообщения
Вы не можете редактировать свои сообщения
Вы не можете удалять свои сообщения
Вы не можете голосовать в опросах
Вы не можете прикреплять файлы к сообщениям
Вы можете скачивать файлы