Холодное сердце / Frozen (Крис Бак : Chris Buck, Дженнифер Ли : Jennifer Lee) [2013, США, мультфильм, мюзикл, фэнтези, комедия, мелодрама, приключения, семейный, BDRip] [Оригинальный видеоряд] 2x AVO (Сербин, Живов) + UKR + KAZ + ENG + Sub

Ответить на тему
Статистика раздачи
Размер:  1.86 GB   |    Зарегистрирован:  10 дней   |    Скачан:  0 раз
Сидов:  1   Личеров:  1  
 
 
Автор Сообщение

erzsebet ®

Стаж: 18 лет

Сообщений: 470810

Откуда: Венгрия

Создавать темы 30-Июн-2020 10:49  |  Сменить автора

[Цитировать] 

Холодное сердце: Frozen«From the creators of 'Tangled' and 'Wreck-It Ralph'...» Год выпуска: 2013
Страна: США
Жанр: мультфильм, мюзикл, приключения, семейный
Продолжительность: 01:42:13
Перевод:
- Авторский (одноголосый закадровый) - Сербин
- Авторский (одноголосый закадровый) - Живов
Русские субтитры: есть-Режиссёр: Крис Бак : Chris Buck, Дженнифер Ли : Jennifer-Роли озвучивали: Кристен Белл (Anna), Идина Мензел (Elsa), Джонатан Грофф (Kristoff), Джош Гад (Olaf), Сантино Фонтана (Hans), Алан Тьюдик (Duke), Киран Хайндс (Pabbie / Grandpa ), Крис Уильямс (Oaken), Стивен Дж. Андерсон (Kai), Майа Уилсон (Bulda)-Описание: Когда древнее предсказание сбывается и королевство погружается в объятия вечной зимы, трое бесстрашных героев - принцесса Анна, отважный Кристофф и его верный олень Свен - отправляются в горы, чтобы найти сестру Анны, Эльзу, которая может снять со страны леденящее заклятие. По пути их ждет множество увлекательных сюрпризов и захватывающих приключений: встреча с мистическими троллями, знакомство с очаровательным снеговиком по имени Олаф, горные вершины покруче Эвереста и магия в каждой снежинке. Анне и Кристоффу предстоит сплотиться и противостоять могучей стихии, чтобы спасти королевство и тех, кто им дорог...-За любезно предоставленный казахский дубляж, записанный с телеканала "Казахстан", спасибо Mr-Maximus

Семпл: http://sendfile.su/1301044-Качество: BDRip
Формат: AVI
Видео: XVID, 720x320 (2.25:1), 23.976 fps, ~1636 kbps avg, 0.296 bit/pixel
Аудио #1: [RUS] 48 kHz, AC3 Dolby Digital, 2 ch, ~192.00 kbps avg - AVO (Сербин)
Аудио #2: [RUS] 48 kHz, AC3 Dolby Digital, 2 ch, ~192.00 kbps avg - AVO (Живов)
Аудио #3: [UKR] 48 kHz, AC3 Dolby Digital, 2 ch, ~192.00 kbps avg - DUB (отдельно)
Аудио #4: [KAZ] 48 kHz, AC3 Dolby Digital, 2 ch, ~192.00 kbps avg - DUB (отдельно)
Аудио #5: [ENG] 48 kHz, AC3 Dolby Digital, 2 ch, ~192.00 kbps avg - DUB (отдельно)
Субтитры: русские, английские

Mediainfo

Видео
Идентификатор : 0
Формат : MPEG-4 Visual
Профиль формата : Advanced [email protected]
Параметр BVOP формата : 1
Параметр QPel формата : Нет
Параметр GMC формата : Без точки перехода
Параметр матрицы формата : Выборочная
Идентификатор кодека : XVID
Идентификатор кодека/Подсказка : XviD
Продолжительность : 1 ч. 42 м.
Битрейт : 1636 Кбит/сек
Ширина : 720 пикселей
Высота : 320 пикселей
Соотношение сторон : 2,25:1
Частота кадров : 23,976 (24000/1001) кадра/сек
Частота кадров в оригинале : 23,976 (23976/1000) кадра/сек
Цветовое пространство : YUV
Субдискретизация насыщенности : 4:2:0
Битовая глубина : 8 бит
Тип развёртки : Прогрессивная
Метод сжатия : С потерями
Бит/(Пиксели*Кадры) : 0.296
Размер потока : 1,17 Гбайт (80%)
Библиотека кодирования : XviD 73
Аудио #1
Идентификатор : 1
Формат : AC-3
Формат/Информация : Audio Coding 3
Расширение режима : CM (complete main)
Параметр Endianness формата : Big
Идентификатор кодека : 2000
Продолжительность : 1 ч. 42 м.
Вид битрейта : Постоянный
Битрейт : 192 Кбит/сек
Каналы : 2 канала
Расположение каналов : Front: L R
Частота : 48,0 КГц
Частота кадров : 31,250 кадров/сек (1536 spf)
Битовая глубина : 16 бит
Метод сжатия : С потерями
Размер потока : 140 Мбайт (9%)
Выравнивание : Разделение по промежуткам
Продолжительность промежутка : 42 мс. (1,00 видеокадр)
Время предзагрузки промежутка : 500 мс.
Аудио #2
Идентификатор : 2
Формат : AC-3
Формат/Информация : Audio Coding 3
Расширение режима : CM (complete main)
Параметр Endianness формата : Big
Идентификатор кодека : 2000
Продолжительность : 1 ч. 42 м.
Вид битрейта : Постоянный
Битрейт : 192 Кбит/сек
Каналы : 2 канала
Расположение каналов : Front: L R
Частота : 48,0 КГц
Частота кадров : 31,250 кадров/сек (1536 spf)
Битовая глубина : 16 бит
Метод сжатия : С потерями
Размер потока : 140 Мбайт (9%)
Выравнивание : Разделение по промежуткам
Продолжительность промежутка : 42 мс. (1,00 видеокадр)
Время предзагрузки промежутка : 500 мс.

Скриншоты

[erzsebet.org].t2924571.torrent
Торрент: Зарегистрирован [ 2020-06-30 10:49 ]

Скачать .torrent

Скачать

19 KB

Статус: проверено
Скачан: 0 раз
Размер: 1.86 GB
Поблагодарили: 0  Спасибо
terms.php
Связанные раздачи
Добавлен Темы Размер S / L Ссылка
30-Июн-20 10:49 Холодное сердце 2 / Frozen II (Крис Бак / Chris Buck, Дженнифер Ли / Jennifer Lee) [2019, США, мультфильм, мюзикл, фэнтези, комедия, приключения, семейный, BDRip-AVC] Dub (Rus) + Sub (Rus, Eng) + Original (Eng)Отв. 0 1.46 GB | Скачать .torrent
30-Июн-20 10:49 Холодное сердце / Frozen (Крис Бак / Chris Buck, Дженнифер Ли / Jennifer Lee) [2013, Мюзикл, фэнтези, комедия, мелодрама, приключения, BDRip-AVC] [Оригинальный видеоряд] Dub (BD CEE) + 2x AVO (Ю. Сербин, Ю.Живов) + Dub (Ukr) + SubОтв. 0 3.54 GB | Скачать .torrent
01-Апр-20 03:12 [VIDEO43DS] Холодное сердце в 3Д / Frozen 3D [Крис Бак / Chris Buck, Дженнифер Ли / Jennifer Lee][2013, Мультфильм, Приключения, Семейный, Мюзикл, 240p MOFLEX]Отв. 0 1.34 GB | Скачать .torrent
28-Фев-20 16:25 Холодное сердце 2 / Frozen II (Крис Бак / Chris Buck, Дженнифер Ли / Jennifer Lee) [2019, США, мультфильм, мюзикл, фэнтези, приключения, семейный, BDRip 720p] Dub (Rus, Ukr) + Sub (Rus, Eng) + Original EngОтв. 0 4.46 GB | Скачать .torrent
[Профиль]  [ЛС] 
Показать сообщения:    
Ответить на тему

Текущее время: 11-Июл 02:12

Часовой пояс: UTC + 3



Вы не можете начинать темы
Вы не можете отвечать на сообщения
Вы не можете редактировать свои сообщения
Вы не можете удалять свои сообщения
Вы не можете голосовать в опросах
Вы не можете прикреплять файлы к сообщениям
Вы можете скачивать файлы